呆呆狐狸
隐世仙人♂

[2017] [英国] [剧情] [打包] [BT下载][呼叫助产士/Call The Midwife 第七季][全08集][英语中字][MKV][1080P][WEB+中文字幕]

-->

◎译  名 呼叫助产士 第七季 圣诞特辑

◎片  名 Call the Midwife Season 7

◎年  代 2017

◎国  家 英国

◎类  别 剧情

◎语  言 英语

◎BT之家整理 http://8btbtt.com/ 

◎集  数 8

◎片  长 60分钟

◎导  演 谢雷·福克森 Sheree Folkson

◎主  演 Pearl Appleby

      Tony West

      杰克·阿什顿 Jack Ashton


◎简  介


  珍妮(杰西卡·瑞恩 Jessica Raine 饰)是一名初出茅庐的年轻护士,怀揣着对未来和职业的美好幻想,她千里迢迢来到了自己未来的工作地点,让珍妮没有想到的是,到达目的地后,展现在她眼前的,竟然是一间修道院。 

  小小的诧异只维持了短短的一会儿,很快,在依文洁琳修女(帕姆·费里斯 Pam Ferris 饰)和莫妮卡修女(朱迪·帕瑞福特 Judy Parfitt 饰)的帮助和陪伴之下,珍妮很快就熟悉了工作环境和新的生活。随着时间的推移,珍妮即将迎来自己入职以来的第一个挑战——一名因为摔倒而导致了早产的女子,珍妮能够完成如此艰巨的任务吗?她在修道院里又会遇见怎样的人和事呢?


Video
ID : 1
Format : AVC
Format/Info : Advanced Video Codec
Format profile : [email protected]
Format settings : CABAC / 4 Ref Frames
Format settings, CABAC : Yes
Format settings, ReFrames : 4 frames
Codec ID : V_MPEG4/ISO/AVC
Duration : 58 min 12 s
Bit rate mode : Variable
Bit rate : 8 118 kb/s
Maximum bit rate : 15.0 Mb/s
Width : 1 920 pixels
Height : 1 080 pixels
Display aspect ratio : 16:9
Frame rate mode : Constant
Frame rate : 25.000 FPS
Color space : YUV
Chroma subsampling : 4:2:0
Bit depth : 8 bits
Scan type : Progressive
Bits/(Pixel*Frame) : 0.157
Stream size : 3.30 GiB (97%)
Default : Yes
Forced : No
Color range : Limited
Color primaries : BT.709
Transfer characteristics : BT.709
Matrix coefficients : BT.709

Audio
ID : 2
Format : E-AC-3
Format/Info : Enhanced AC-3
Commercial name : Dolby Digital Plus
Codec ID : A_EAC3
Duration : 58 min 12 s
Bit rate mode : Constant
Bit rate : 224 kb/s
Channel(s) : 2 channels
Channel layout : L R
Sampling rate : 48.0 kHz
Frame rate : 31.250 FPS (1536 SPF)
Compression mode : Lossy
Stream size : 93.3 MiB (3%)
Language : English
Service kind : Complete Main
Default : Yes
Forced : No



2 个附件 售价 大小 下载 时间

Call.the.Midwife.S07.1080p.AMZN.WEBRip.DDP2.0.x264-NTb[92btbtt.com].torrent 0 金币 64.42K 1106 次 2019-3-6

呼叫助产士 第七季 Call the Midwife Season 7 (2018).官中.rar 0 金币 154.62K 91 次 2月前

#1楼
发帖时间:2019-03-06 19:02:23   |   回复数:2
911degrees
隐世仙人♂
非常感谢,谢谢分享
2019-3-6 #2楼
david19710102
超级版主
1123
2月前 #3楼
游客组