Asuka601
隐世仙人♂

[2019] [欧美] [剧情] [BD-1080P] 比利小子[简繁英字幕].The.Kid.2019.1080p.BluRay.x265.10bit.DTS-SONYHD 3.72GB

-->

完整标题:比利小子[简繁英字幕].The.Kid.2019.1080p.BluRay.x265.10bit.DTS-SONYHD 3.72GB



◎标  题 比利小子
◎译  名 小子
◎片  名 The Kid
◎年  代 2019
◎产  地 美国
◎类  别 剧情 / 传记 / 西部
◎语  言 英语
◎上映日期 2019-03-08(美国)
◎IMDb评分 5.9/10 (8893人评价)
◎IMDb链接 https://www.imdb.com/title/tt4975920/
◎豆瓣评分 5.8/10 (854人评价)
◎豆瓣链接 https://movie.douban.com/subject/26959517/
◎片  长 100分钟
◎导  演 文森特·多诺费奥 Vincent D'Onofrio
◎编  剧 安德鲁·兰纳姆 Andrew Lanham
◎演  员 克里斯·帕拉特 Chris Pratt
      文森特·多诺费奥 Vincent D'Onofrio
      伊桑·霍克 Ethan Hawke
      莱拉·乔治 Leila George
      戴恩·德哈恩 Dane DeHaan
      亚当·鲍德温 Adam Baldwin
      基思·雅各 Keith Jardine
      泰特·弗莱彻 Tait Fletcher
      詹妮加布里埃尔 Jenny Gabrielle
      斯塔福德·道格拉斯 Stafford Douglas
      蕾切尔·德·拉·托尔 Rachel de la Torre
      J·内森·西蒙斯 J. Nathan Simmons
      保罗· 罗森布拉姆 Paul Rosenblum
      杰克·舒尔 Jake Schur

◎简  介
    男孩Rio(Jake Schur)被迫穿过美国西南部,试图从他暴虐(克里斯·帕拉特)的叔叔手中,救回他的姐姐Sara(莱拉·乔治)。另一边,著名的不法之徒比利小子(戴恩·德哈恩)正遭到警长派特·加勒特(伊桑·霍克)的追捕。   Rio与这两人相遇,目睹了比例和警长之间关于逃跑、追捕、斗争的故事,并渐渐卷入其中。但最终,Rio要做出选择,他要成为哪种人,法外之徒还是正义代表?另外,他将如何从恶舅舅帕帕手中救下姐姐?

##### MediaInfo ######
General
Unique ID : 50260982654154443422670759420510925654 (0x25CFE9C461B4923BEC78F016D504F356)
Complete name : The.Kid.2019.1080p.BluRay.x265.10bit.DTS-SONYHD.mkv
Duration : 1 h 39 min
Overall bit rate : 5 324 kb/s

Video
ID : 1
Format : HEVC
Format/Info : High Efficiency Video Coding
Format profile : Main 10@L4@Main
Codec ID : V_MPEGH/ISO/HEVC
Duration : 1 h 39 min
Bit rate : 3 742 kb/s
Width : 1 920 pixels
Height : 804 pixels
Display aspect ratio : 2.40:1
Frame rate mode : Constant
Frame rate : 23.976 (24000/1001) FPS
Color space : YUV
Chroma subsampling : 4:2:0
Bit depth : 10 bits
Bits/(Pixel*Frame) : 0.101
Stream size : 2.61 GiB (70%)
Writing library : x265 3.5g2b25c9ba0+45:[Windows][GCC 10.2.0][64 bit] Yuuki 10bit+8bit+12bit
Encoding settings : rc=crf / crf=17.0000 / qcomp=0.60 / qpstep=4 / stats-write=0 / stats-read=0 / no-lossless / no-cu-lossless / aq-mode=3 / aq-strength=0.90 / cbqpoffs=0 / crqpoffs=0 / ipratio=1.40 / pbratio=1.30 / psy-rd=2.00 / psy-rdoq=0.00 / deblock=0:0 / ref=6 / limit-refs=1 / no-limit-modes / bframes=8 / b-adapt=2 / bframe-bias=0 / b-pyramid / b-intra / weightp / weightb / min-keyint=24 / max-keyint=240 / rc-lookahead=24 / gop-lookahead=0 / scenecut=40 / hist-scenecut=0 / radl=0 / max-cu-size=64 / min-cu-size=8 / me=3 / subme=7 / merange=48 / rdoq-level=0 / rd=4 / rdpenalty=0 / dynamic-rd=0.00 / no-rd-refine / ----- / cutree / sao / no-rect / no-amp / no-open-gop / wpp / no-pmode / no-pme / no-psnr / no-ssim / nr-intra=0 / nr-inter=0 / no-constrained-intra / no-strong-intra-smoothing / max-tu-size=32 / tu-inter-depth=1 / tu-intra-depth=1 / limit-tu=0 / qg-size=32 / qpmax=69 / qpmin=0 / ----- / cpuid=1111039 / frame-threads=5 / numa-pools=+ / log-level=2 / input-csp=1 / input-res=1920x804 / interlace=0 / level-idc=0 / high-tier=1 / uhd-bd=0 / no-allow-non-conformance / no-repeat-headers / aud / no-hrd / info / hash=0 / no-temporal-layers / lookahead-slices=0 / no-splice / no-intra-refresh / no-ssim-rd / signhide / no-tskip / max-merge=3 / temporal-mvp / no-frame-dup / no-hme / no-analyze-src-pics / no-sao-non-deblock / selective-sao=4 / early-skip / rskip / no-fast-intra / no-tskip-fast / no-splitrd-skip / zone-count=0 / no-strict-cbr / no-rc-grain / no-const-vbv / sar=0 / overscan=0 / videoformat=5 / range=0 / colorprim=2 / transfer=2 / colormatrix=2 / chromaloc=0 / display-window=0 / cll=0,0 / min-luma=0 / max-luma=1023 / log2-max-poc-lsb=8 / vui-timing-info / vui-hrd-info / slices=1 / no-opt-qp-pps / no-opt-ref-list-length-pps / no-multi-pass-opt-rps / scenecut-bias=0.05 / hist-threshold=0.03 / no-opt-cu-delta-qp / no-aq-motion / no-hdr10 / no-hdr10-opt / no-dhdr10-opt / no-idr-recovery-sei / analysis-reuse-level=0 / analysis-save-reuse-level=0 / analysis-load-reuse-level=0 / scale-factor=0 / refine-intra=0 / refine-inter=0 / refine-mv=1 / refine-ctu-distortion=0 / no-limit-sao / ctu-info=0 / no-lowpass-dct / refine-analysis-type=0 / copy-pic=1 / max-ausize-factor=1.0 / no-dynamic-refine / no-single-sei / no-hevc-aq / no-svt / no-field / qp-adaptation-range=1.00 / scenecut-aware-qp=0conformance-window-offsets / right=0 / bottom=0 / decoder-max-rate=0 / no-vbv-live-multi-pass
Language : English
Default : Yes
Forced : No

Audio
ID : 2
ID in the original source medium : 4352 (0x1100)
Format : DTS
Format/Info : Digital Theater Systems
Codec ID : A_DTS
Duration : 1 h 39 min
Bit rate mode : Constant
Bit rate : 1 509 kb/s
Channel(s) : 6 channels
Channel layout : C L R Ls Rs LFE
Sampling rate : 48.0 kHz
Frame rate : 93.750 FPS (512 SPF)
Bit depth : 24 bits
Compression mode : Lossy
Stream size : 1.05 GiB (28%)
Language : English
Default : Yes
Forced : No
Original source medium : Blu-ray

Text #1
ID : 3
ID in the original source medium : 4610 (0x1202)
Format : PGS
Muxing mode : zlib
Codec ID : S_HDMV/PGS
Codec ID/Info : Picture based subtitle format used on BDs/HD-DVDs
Duration : 1 h 37 min
Bit rate : 38.5 kb/s
Frame rate : 0.345 FPS
Count of elements : 2019
Stream size : 26.9 MiB (1%)
Title : chs&eng
Language : Chinese
Default : Yes
Forced : No
Original source medium : Blu-ray

Text #2
ID : 4
ID in the original source medium : 4611 (0x1203)
Format : PGS
Muxing mode : zlib
Codec ID : S_HDMV/PGS
Codec ID/Info : Picture based subtitle format used on BDs/HD-DVDs
Duration : 1 h 37 min
Bit rate : 38.6 kb/s
Frame rate : 0.345 FPS
Count of elements : 2019
Stream size : 27.0 MiB (1%)
Title : cht&eng
Language : Chinese
Default : No
Forced : No
Original source medium : Blu-ray

Text #3
ID : 5
ID in the original source medium : 4612 (0x1204)
Format : PGS
Muxing mode : zlib
Codec ID : S_HDMV/PGS
Codec ID/Info : Picture based subtitle format used on BDs/HD-DVDs
Duration : 1 h 37 min
Bit rate : 22.1 kb/s
Frame rate : 0.345 FPS
Count of elements : 2019
Stream size : 15.4 MiB (0%)
Title : chs
Language : Chinese
Default : No
Forced : No
Original source medium : Blu-ray

Text #4
ID : 6
ID in the original source medium : 4613 (0x1205)
Format : PGS
Muxing mode : zlib
Codec ID : S_HDMV/PGS
Codec ID/Info : Picture based subtitle format used on BDs/HD-DVDs
Duration : 1 h 37 min
Bit rate : 22.3 kb/s
Frame rate : 0.345 FPS
Count of elements : 2019
Stream size : 15.5 MiB (0%)
Title : cht
Language : Chinese
Default : No
Forced : No
Original source medium : Blu-ray

Text #5
ID : 7
ID in the original source medium : 4608 (0x1200)
Format : PGS
Muxing mode : zlib
Codec ID : S_HDMV/PGS
Codec ID/Info : Picture based subtitle format used on BDs/HD-DVDs
Duration : 1 h 37 min
Bit rate : 30.8 kb/s
Frame rate : 0.379 FPS
Count of elements : 2210
Stream size : 21.4 MiB (1%)
Title : eng
Language : English
Default : No
Forced : No
Original source medium : Blu-ray

Menu
00:00:00.000 : en:Chapter 01
00:05:07.848 : en:Chapter 02
00:11:48.874 : en:Chapter 03
00:17:41.351 : en:Chapter 04
00:21:57.982 : en:Chapter 05
00:27:34.986 : en:Chapter 06
00:33:08.903 : en:Chapter 07
00:40:09.239 : en:Chapter 08
00:46:28.784 : en:Chapter 09
00:53:46.222 : en:Chapter 10
00:59:39.324 : en:Chapter 11
01:05:08.612 : en:Chapter 12
01:10:45.407 : en:Chapter 13
01:18:40.256 : en:Chapter 14
01:25:15.734 : en:Chapter 15
01:31:50.296 : en:Chapter 16


部分资源为软字幕,移动端推荐播放器:MxPlayer,nPlayer,infuse ,其他播放器请自行尝试。

部分资源为软字幕,电脑端推荐播放器:PotPlayer,完美解码,KMPLAYER,其他播放器请自行尝试。

下载端推荐纯BT下载软件:qBittorrent,Bitcomet,uTorrent ,其他下载软件请自行尝试。不支持吸血迅雷。



1 个附件 售价 大小 下载 时间

The.Kid.2019.1080p.BluRay.x265.10bit.DTS-SONYHD[1LOU.ME].torrent 0 金币 11.82K 560 次 1月前

#1楼
发帖时间:2024-04-18 21:03:03   |   回复数:1
feung18
武林盟主
感謝樓主辛苦 !
1月前 #2楼
游客组