Asuka601
隐世仙人♂

[2019] [欧美] [剧情] [BD-1080P] 比利小子[简繁英字幕].The.Kid.2019.1080p.BluRay.x264.DTS-SONYHD 7.72GB

-->

完整标题:比利小子[简繁英字幕].The.Kid.2019.1080p.BluRay.x264.DTS-SONYHD 7.72GB



◎标  题 比利小子
◎译  名 小子
◎片  名 The Kid
◎年  代 2019
◎产  地 美国
◎类  别 剧情 / 传记 / 西部
◎语  言 英语
◎上映日期 2019-03-08(美国)
◎IMDb评分 5.9/10 (8893人评价)
◎IMDb链接 https://www.imdb.com/title/tt4975920/
◎豆瓣评分 5.8/10 (854人评价)
◎豆瓣链接 https://movie.douban.com/subject/26959517/
◎片  长 100分钟
◎导  演 文森特·多诺费奥 Vincent D'Onofrio
◎编  剧 安德鲁·兰纳姆 Andrew Lanham
◎演  员 克里斯·帕拉特 Chris Pratt
      文森特·多诺费奥 Vincent D'Onofrio
      伊桑·霍克 Ethan Hawke
      莱拉·乔治 Leila George
      戴恩·德哈恩 Dane DeHaan
      亚当·鲍德温 Adam Baldwin
      基思·雅各 Keith Jardine
      泰特·弗莱彻 Tait Fletcher
      詹妮加布里埃尔 Jenny Gabrielle
      斯塔福德·道格拉斯 Stafford Douglas
      蕾切尔·德·拉·托尔 Rachel de la Torre
      J·内森·西蒙斯 J. Nathan Simmons
      保罗· 罗森布拉姆 Paul Rosenblum
      杰克·舒尔 Jake Schur

◎简  介
    男孩Rio(Jake Schur)被迫穿过美国西南部,试图从他暴虐(克里斯·帕拉特)的叔叔手中,救回他的姐姐Sara(莱拉·乔治)。另一边,著名的不法之徒比利小子(戴恩·德哈恩)正遭到警长派特·加勒特(伊桑·霍克)的追捕。   Rio与这两人相遇,目睹了比例和警长之间关于逃跑、追捕、斗争的故事,并渐渐卷入其中。但最终,Rio要做出选择,他要成为哪种人,法外之徒还是正义代表?另外,他将如何从恶舅舅帕帕手中救下姐姐?

##### MediaInfo ######
General
Unique ID : 6753236584950027551574026055755028992 (0x514A045358E7B027044C5B58234DA00)
Complete name : The.Kid.2019.1080p.BluRay.x264.DTS-SONYHD.mkv
Duration : 1 h 39 min
Overall bit rate : 11.1 Mb/s

Video
ID : 1
Format : AVC
Format/Info : Advanced Video Codec
Format profile : [email protected]
Format settings : CABAC / 4 Ref Frames
Format settings, CABAC : Yes
Format settings, Reference frames : 4 frames
Codec ID : V_MPEG4/ISO/AVC
Duration : 1 h 39 min
Bit rate : 9 469 kb/s
Width : 1 920 pixels
Height : 804 pixels
Display aspect ratio : 2.40:1
Frame rate mode : Constant
Frame rate : 23.976 (24000/1001) FPS
Color space : YUV
Chroma subsampling : 4:2:0
Bit depth : 8 bits
Scan type : Progressive
Bits/(Pixel*Frame) : 0.256
Stream size : 6.61 GiB (86%)
Writing library : x264 core 164 r3107+55M 1028c06 t_mod_New [(8 & 10)-bit@all X86_64]
Encoding settings : cabac=1 / ref=4 / deblock=1:-3:-3 / analyse=0x3:0x133 / me=umh / subme=11 / psy=1 / fade_compensate=0.00 / psy_rd=1.00:0.00 / mixed_ref=1 / me_range=48 / chroma_me=1 / trellis=2 / 8x8dct=1 / cqm=0 / deadzone=21,11 / fast_pskip=0 / chroma_qp_offset=-3 / threads=25 / lookahead_threads=6 / sliced_threads=0 / nr=0 / decimate=0 / interlaced=0 / bluray_compat=0 / constrained_intra=0 / fgo=0 / bframes=11 / b_pyramid=2 / b_adapt=2 / b_bias=0 / direct=3 / weightb=1 / open_gop=0 / weightp=2 / keyint=240 / keyint_min=1 / scenecut=40 / intra_refresh=0 / rc_lookahead=72 / rc=crf / mbtree=0 / crf=17.0000 / qcomp=0.60 / qpmin=0:0:0 / qpmax=69:69:69 / qpstep=4 / vbv_maxrate=62500 / vbv_bufsize=78125 / crf_max=0.0 / nal_hrd=none / filler=0 / ip_ratio=1.40 / pb_ratio=1.30 / aq=3:0.80 / aq-sensitivity=10.00 / aq-factor=1.00:1.00:1.00 / aq2=0 / aq3=0
Language : English
Default : Yes
Forced : No

Audio
ID : 2
ID in the original source medium : 4352 (0x1100)
Format : DTS
Format/Info : Digital Theater Systems
Codec ID : A_DTS
Duration : 1 h 39 min
Bit rate mode : Constant
Bit rate : 1 509 kb/s
Channel(s) : 6 channels
Channel layout : C L R Ls Rs LFE
Sampling rate : 48.0 kHz
Frame rate : 93.750 FPS (512 SPF)
Bit depth : 24 bits
Compression mode : Lossy
Stream size : 1.05 GiB (14%)
Language : English
Default : Yes
Forced : No
Original source medium : Blu-ray

Text #1
ID : 3
ID in the original source medium : 4610 (0x1202)
Format : PGS
Muxing mode : zlib
Codec ID : S_HDMV/PGS
Codec ID/Info : Picture based subtitle format used on BDs/HD-DVDs
Duration : 1 h 37 min
Bit rate : 38.5 kb/s
Frame rate : 0.345 FPS
Count of elements : 2019
Stream size : 26.9 MiB (0%)
Title : chs&eng
Language : Chinese
Default : Yes
Forced : No
Original source medium : Blu-ray

Text #2
ID : 4
ID in the original source medium : 4611 (0x1203)
Format : PGS
Muxing mode : zlib
Codec ID : S_HDMV/PGS
Codec ID/Info : Picture based subtitle format used on BDs/HD-DVDs
Duration : 1 h 37 min
Bit rate : 38.6 kb/s
Frame rate : 0.345 FPS
Count of elements : 2019
Stream size : 27.0 MiB (0%)
Title : cht&eng
Language : Chinese
Default : No
Forced : No
Original source medium : Blu-ray

Text #3
ID : 5
ID in the original source medium : 4612 (0x1204)
Format : PGS
Muxing mode : zlib
Codec ID : S_HDMV/PGS
Codec ID/Info : Picture based subtitle format used on BDs/HD-DVDs
Duration : 1 h 37 min
Bit rate : 22.1 kb/s
Frame rate : 0.345 FPS
Count of elements : 2019
Stream size : 15.4 MiB (0%)
Title : chs
Language : Chinese
Default : No
Forced : No
Original source medium : Blu-ray

Text #4
ID : 6
ID in the original source medium : 4613 (0x1205)
Format : PGS
Muxing mode : zlib
Codec ID : S_HDMV/PGS
Codec ID/Info : Picture based subtitle format used on BDs/HD-DVDs
Duration : 1 h 37 min
Bit rate : 22.3 kb/s
Frame rate : 0.345 FPS
Count of elements : 2019
Stream size : 15.5 MiB (0%)
Title : cht
Language : Chinese
Default : No
Forced : No
Original source medium : Blu-ray

Text #5
ID : 7
ID in the original source medium : 4608 (0x1200)
Format : PGS
Muxing mode : zlib
Codec ID : S_HDMV/PGS
Codec ID/Info : Picture based subtitle format used on BDs/HD-DVDs
Duration : 1 h 37 min
Bit rate : 30.8 kb/s
Frame rate : 0.379 FPS
Count of elements : 2210
Stream size : 21.4 MiB (0%)
Title : eng
Language : English
Default : No
Forced : No
Original source medium : Blu-ray

Menu
00:00:00.000 : en:Chapter 01
00:05:07.848 : en:Chapter 02
00:11:48.874 : en:Chapter 03
00:17:41.351 : en:Chapter 04
00:21:57.982 : en:Chapter 05
00:27:34.986 : en:Chapter 06
00:33:08.903 : en:Chapter 07
00:40:09.239 : en:Chapter 08
00:46:28.784 : en:Chapter 09
00:53:46.222 : en:Chapter 10
00:59:39.324 : en:Chapter 11
01:05:08.612 : en:Chapter 12
01:10:45.407 : en:Chapter 13
01:18:40.256 : en:Chapter 14
01:25:15.734 : en:Chapter 15
01:31:50.296 : en:Chapter 16


部分资源为软字幕,移动端推荐播放器:MxPlayer,nPlayer,infuse ,其他播放器请自行尝试。

部分资源为软字幕,电脑端推荐播放器:PotPlayer,完美解码,KMPLAYER,其他播放器请自行尝试。

下载端推荐纯BT下载软件:qBittorrent,Bitcomet,uTorrent ,其他下载软件请自行尝试。不支持吸血迅雷。



1 个附件 售价 大小 下载 时间

The.Kid.2019.1080p.BluRay.x264.DTS-SONYHD[1LOU.ME].torrent 0 金币 21.81K 518 次 1月前

#1楼
发帖时间:2024-04-18 21:02:05   |   回复数:0
游客组