Asuka601
隐世仙人♂

[2022] [大陆] [剧情] [WEB-1080P] 青面修罗[国语配音/中文字幕].Song.of.the.Assassins.2022.1080p.WEB-DL.H264.AAC-BATWEB 1.45GB

-->

完整标题:青面修罗[国语配音/中文字幕].Song.of.the.Assassins.2022.1080p.WEB-DL.H264.AAC-BATWEB 1.45GB



◎标  题 青面修罗
◎译  名 刺局电影 / 刺局 / Song of the Assassins
◎年  代 2022
◎产  地 中国大陆 / 中国香港
◎类  别 剧情 / 动作 / 悬疑
◎语  言 汉语普通话
◎上映日期 2022-05-13(中国大陆网络)
◎IMDb评分 5.2/10 (260人评价)
◎IMDb链接 https://www.imdb.com/title/tt8032932/
◎豆瓣评分 4.2/10 (8021人评价)
◎豆瓣链接 https://movie.douban.com/subject/26926448/
◎片  长 118分钟
◎导  演 李仁港 Daniel Lee
◎编  剧 李仁港 Daniel Lee
      杨惠晴 Ravine Yang
◎演  员 冯绍峰 Shaofeng Feng
      胡军 Jun Hu
      金晨 Chen Jin
      王庆祥 Qingxiang Wang
      吕良伟 Ray Lui
      曾江 Kenneth Tsang
      高捷 Jack Kao
      吴岱融 Hugo Ng Doi-Yung
      盛鉴 Chien Sheng
      徐少强 Norman Chu
      修庆 Qing Xiu
      杜玉明 Yuming Du
      袁祥仁 Cheung-Yan Yuen
      闵政 Zheng Min
      马小茜 Xiaoqian Ma
      周小飞 Xiaofei Zhou
      涂圣成 Shengcheng Tu
      吴永伦 Alan Ng
      李树 Shu Li
      董李无忧 liwuyou Dong

◎简  介
    影片讲述的是在古代刺客组织离恨谷中,一位少年侠客如何成为天下第一刺客的惊险故事。

点击图片可查看大图

软字幕无法在截图上展现,HDR版本/杜比视界版本截图会出现颜色异常,请使用支持的设备播放!

##### MediaInfo ######
General
Unique ID : 183308963158770461990047436399676017633 (0x89E805A9CD0422334C17BC36E4F4CBE1)
Complete name : Song.of.the.Assassins.2022.1080p.WEB-DL.H264.AAC-BATWEB.mkv
Duration : 1 h 57 min
Overall bit rate : 1 760 kb/s

Video
ID : 1
Format : AVC
Format/Info : Advanced Video Codec
Format profile : High@L4
Format settings : CABAC / 3 Ref Frames
Format settings, CABAC : Yes
Format settings, Reference frames : 3 frames
Codec ID : V_MPEG4/ISO/AVC
Duration : 1 h 57 min
Bit rate : 1 568 kb/s
Width : 1 920 pixels
Height : 800 pixels
Display aspect ratio : 2.40:1
Frame rate mode : Constant
Frame rate : 24.000 FPS
Color space : YUV
Chroma subsampling : 4:2:0
Bit depth : 8 bits
Scan type : Progressive
Bits/(Pixel*Frame) : 0.043
Stream size : 1.29 GiB (89%)
Language : Chinese
Default : Yes
Forced : No
Color range : Limited
Color primaries : BT.709
Transfer characteristics : BT.709
Matrix coefficients : BT.709

Audio
ID : 2
Format : AAC LC
Format/Info : Advanced Audio Codec Low Complexity
Codec ID : A_AAC-2
Duration : 1 h 57 min
Bit rate : 192 kb/s
Channel(s) : 2 channels
Channel layout : L R
Sampling rate : 44.1 kHz
Frame rate : 43.066 FPS (1024 SPF)
Compression mode : Lossy
Stream size : 160 MiB (11%)
Default : No
Forced : No


部分资源为软字幕,移动端推荐播放器:MxPlayer,nPlayer,infuse ,其他播放器请自行尝试。

部分资源为软字幕,电脑端推荐播放器:PotPlayer,完美解码,KMPLAYER,其他播放器请自行尝试。

下载端推荐纯BT下载软件:qBittorrent,Bitcomet,uTorrent ,其他下载软件请自行尝试。不支持吸血迅雷。



1 个附件 售价 大小 下载 时间

Song.of.the.Assassins.2022.1080p.WEB-DL.H264.AAC-BATWEB[1LOU.ME].torrent 0 金币 6.18K 742 次 1月前

#1楼
发帖时间:2024-04-18 16:43:46   |   回复数:0
游客组