Asuka601
隐世仙人♂

[2022] [大陆] [剧情] [WEB-4K] 蓬莱龙棺之徐福宝藏[国语配音/中文字幕].The.Dragon.Coffin.of.Penglai.2022.2160p.WEB-DL.H265.AAC-BAT

-->

完整标题:蓬莱龙棺之徐福宝藏[国语配音/中文字幕].The.Dragon.Coffin.of.Penglai.2022.2160p.WEB-DL.H265.AAC-BATWEB 2.81GB



◎标  题 蓬莱龙棺之徐福宝藏
◎年  代 2022
◎产  地 中国大陆
◎类  别 剧情 / 动作 / 悬疑 / 惊悚 / 冒险
◎语  言 汉语普通话
◎上映日期 2022-07-28(中国大陆)
◎IMDb链接 https://www.imdb.com/title//
◎豆瓣链接 https://movie.douban.com/subject/36024624/
◎演  员 朱庭北 Tingbei Zhu

◎简  介
    本片根据历史记载及民间传说的徐福东渡的故事为出发点,讲诉了民国时期的探险家寻找传说中蓬莱岛上的徐福宝藏,并为了保护中华宝藏,消灭日本特务的故事。本片通过设定主角陈启龙因为反感军阀混战而离开军队,成为探险家,每次所得佣金皆分给伤残军人这一设定,以及宁愿同归于尽,也不能让中华宝藏流落敌手的重要情节,塑造了大义凛然、充满正能量的中国探险家的形象。片中的日本特务吉冈,夺取中国的宝藏为侵略行动服务,侵略者的罪恶行径昭然若揭。军阀之女金娜为帮助父亲摆脱日本人控制,四处搜寻财宝,最后与吉冈同归于尽,这一悲剧性的结尾也揭露了军阀混战其实是列强的代理人战争的历史事实。

点击图片可查看大图

软字幕无法在截图上展现,HDR版本/杜比视界版本截图会出现颜色异常,请使用支持的设备播放!

##### MediaInfo ######
General
Unique ID : 199272126972231984760945494988337624299 (0x95EA6A677F838FAB3D79B3A003A6B4EB)
Complete name : The.Dragon.Coffin.of.Penglai.2022.2160p.WEB-DL.H265.AAC-BATWEB.mkv
Duration : 1 h 10 min
Overall bit rate : 5 674 kb/s

Video
ID : 1
Format : HEVC
Format/Info : High Efficiency Video Coding
Format profile : Main@L5@Main
Codec ID : V_MPEGH/ISO/HEVC
Duration : 1 h 10 min
Bit rate : 5 482 kb/s
Width : 3 840 pixels
Height : 1 632 pixels
Display aspect ratio : 2.35:1
Frame rate mode : Constant
Frame rate : 24.000 FPS
Color space : YUV
Chroma subsampling : 4:2:0
Bit depth : 8 bits
Bits/(Pixel*Frame) : 0.036
Stream size : 2.71 GiB (97%)
Language : Chinese
Default : Yes
Forced : No

Audio
ID : 2
Format : AAC LC
Format/Info : Advanced Audio Codec Low Complexity
Codec ID : A_AAC-2
Duration : 1 h 10 min
Bit rate : 192 kb/s
Channel(s) : 2 channels
Channel layout : L R
Sampling rate : 44.1 kHz
Frame rate : 43.066 FPS (1024 SPF)
Compression mode : Lossy
Stream size : 96.0 MiB (3%)
Default : No
Forced : No


部分资源为软字幕,移动端推荐播放器:MxPlayer,nPlayer,infuse ,其他播放器请自行尝试。

部分资源为软字幕,电脑端推荐播放器:PotPlayer,完美解码,KMPLAYER,其他播放器请自行尝试。

下载端推荐纯BT下载软件:qBittorrent,Bitcomet,uTorrent ,其他下载软件请自行尝试。不支持吸血迅雷。



1 个附件 售价 大小 下载 时间

The.Dragon.Coffin.of.Penglai.2022.2160p.WEB-DL.H265.AAC-BATWEB[1LOU.ME].torrent 0 金币 9.61K 826 次 1月前

#1楼
发帖时间:2024-04-18 16:42:47   |   回复数:0
游客组