Asuka601
隐世仙人♂

[2022] [大陆] [爱情] [WEB-4K] 聂隐娘之绝命刺杀[国语配音/中文字幕].The.Assassination.of.Nie.Yinniang.2022.2160p.WEB-DL.H265.AAC

-->

完整标题:聂隐娘之绝命刺杀[国语配音/中文字幕].The.Assassination.of.Nie.Yinniang.2022.2160p.WEB-DL.H265.AAC-BATWEB 2.81GB



◎标  题 聂隐娘之绝命刺杀
◎年  代 2022
◎产  地 中国大陆
◎类  别 爱情 / 武侠
◎语  言 汉语普通话
◎上映日期 2022-09-15(中国大陆网络)
◎IMDb链接 https://www.imdb.com/title//
◎豆瓣链接 https://movie.douban.com/subject/35201523/
◎片  长 85
◎导  演 陈伟雄 Phat Chan
◎演  员 南笙 Sheng Nan
      金翀 Chong Jin
      郑媛元 Joan
      维妮 ViNi
      李炳雷 Binglei Li
      翁虹 Yvonne Yung
      孔琳 Lin Kong
      程启蒙 Qimeng Cheng
      周仲 Zhong Zhou
      郭明尔 Minger Guo

◎简  介
    安史之乱平定之后,安史余孽成立了飞乙帮,秘密游走于藩镇之间,合纵连横,企图煽动诸帅起兵河北,从中渔利。为了清剿飞乙贼子,朝廷命剑圣裴旻公招募了一些江湖上的剑侠,成立了长水门。贞元十二年,飞乙帮和长水门各自在魏博布下重重迷局,双方在此展开一场惊心动魄的生死之战。

点击图片可查看大图

软字幕无法在截图上展现,HDR版本/杜比视界版本截图会出现颜色异常,请使用支持的设备播放!

##### MediaInfo ######
General
Unique ID : 310629618580869933271914774569058752337 (0xE9B116A1A27556AEE5E77A03EB4AD751)
Complete name : The.Assassination.of.Nie.Yinniang.2022.2160p.WEB-DL.H265.AAC-BATWEB.mkv
Duration : 1 h 24 min
Overall bit rate : 4 729 kb/s

Video
ID : 1
Format : HEVC
Format/Info : High Efficiency Video Coding
Format profile : Main@L5@Main
Codec ID : V_MPEGH/ISO/HEVC
Duration : 1 h 24 min
Bit rate : 4 538 kb/s
Width : 3 840 pixels
Height : 1 632 pixels
Display aspect ratio : 2.35:1
Frame rate mode : Variable
Frame rate : 24.910 FPS
Original frame rate : 25.000 FPS
Color space : YUV
Chroma subsampling : 4:2:0
Bit depth : 8 bits
Bits/(Pixel*Frame) : 0.029
Stream size : 2.69 GiB (96%)
Language : Chinese
Default : Yes
Forced : No

Audio
ID : 2
Format : AAC LC
Format/Info : Advanced Audio Codec Low Complexity
Codec ID : A_AAC-2
Duration : 1 h 24 min
Bit rate : 192 kb/s
Channel(s) : 2 channels
Channel layout : L R
Sampling rate : 44.1 kHz
Frame rate : 43.066 FPS (1024 SPF)
Compression mode : Lossy
Stream size : 115 MiB (4%)
Default : No
Forced : No


部分资源为软字幕,移动端推荐播放器:MxPlayer,nPlayer,infuse ,其他播放器请自行尝试。

部分资源为软字幕,电脑端推荐播放器:PotPlayer,完美解码,KMPLAYER,其他播放器请自行尝试。

下载端推荐纯BT下载软件:qBittorrent,Bitcomet,uTorrent ,其他下载软件请自行尝试。不支持吸血迅雷。



1 个附件 售价 大小 下载 时间

The.Assassination.of.Nie.Yinniang.2022.2160p.WEB-DL.H265.AAC-BATWEB[1LOU.ME].torrent 0 金币 9.61K 882 次 1月前

#1楼
发帖时间:2024-04-18 16:40:38   |   回复数:0
游客组