Asuka601
隐世仙人♂

[2022] [大陆] [悬疑] [WEB-4K] 秦岭密窟[国语配音/中文字幕].Qinling.Mountains.2022.2160p.WEB-DL.H265.AAC-BATWEB 3.06GB

-->

完整标题:秦岭密窟[国语配音/中文字幕].Qinling.Mountains.2022.2160p.WEB-DL.H265.AAC-BATWEB 3.06GB



◎标  题 秦岭密窟
◎年  代 2022
◎产  地 中国大陆
◎类  别 悬疑 / 冒险
◎语  言 汉语普通话
◎上映日期 2022-04-26(中国大陆网络)
◎IMDb链接 https://www.imdb.com/title//
◎豆瓣链接 https://movie.douban.com/subject/35863302/
◎片  长 79分钟
◎导  演 代艺霖 Yilin Dai
◎编  剧 侯爽 Shuang Hou
◎演  员 陈志朋 Julian Chen
      刘威州 Weizhou Liu
      苗清 Qing Miao
      侍宣如 Xuanru Shi

◎简  介
    主人公齐相文因母亲患病受黑帮张神眼要挟指使,假冒地质局成员身份,欺骗具有神秘力量的老子神符拥有者胡教授打开秦岭古迹密窟盗取宝藏,在探险过程中,只有一人回来……

点击图片可查看大图

软字幕无法在截图上展现,HDR版本/杜比视界版本截图会出现颜色异常,请使用支持的设备播放!

##### MediaInfo ######
General
Unique ID : 326569505861722625739398988338318601650 (0xF5AEFFC02FBF488FC8D0A432F34CEDB2)
Complete name : Qinling.Mountains.2022.2160p.WEB-DL.H265.AAC-BATWEB.mkv
Duration : 1 h 18 min
Overall bit rate : 5 577 kb/s

Video
ID : 1
Format : HEVC
Format/Info : High Efficiency Video Coding
Format profile : Main@L5@Main
Codec ID : V_MPEGH/ISO/HEVC
Duration : 1 h 18 min
Bit rate : 5 386 kb/s
Width : 3 840 pixels
Height : 1 440 pixels
Display aspect ratio : 2.667
Frame rate mode : Variable
Frame rate : 24.915 FPS
Original frame rate : 25.000 FPS
Color space : YUV
Chroma subsampling : 4:2:0
Bit depth : 8 bits
Bits/(Pixel*Frame) : 0.039
Stream size : 2.96 GiB (97%)
Language : Chinese
Default : Yes
Forced : No

Audio
ID : 2
Format : AAC LC
Format/Info : Advanced Audio Codec Low Complexity
Codec ID : A_AAC-2
Duration : 1 h 18 min
Bit rate : 192 kb/s
Channel(s) : 2 channels
Channel layout : L R
Sampling rate : 44.1 kHz
Frame rate : 43.066 FPS (1024 SPF)
Compression mode : Lossy
Stream size : 106 MiB (3%)
Default : No
Forced : No


部分资源为软字幕,移动端推荐播放器:MxPlayer,nPlayer,infuse ,其他播放器请自行尝试。

部分资源为软字幕,电脑端推荐播放器:PotPlayer,完美解码,KMPLAYER,其他播放器请自行尝试。

下载端推荐纯BT下载软件:qBittorrent,Bitcomet,uTorrent ,其他下载软件请自行尝试。不支持吸血迅雷。



1 个附件 售价 大小 下载 时间

Qinling.Mountains.2022.2160p.WEB-DL.H265.AAC-BATWEB[1LOU.ME].torrent 0 金币 10.21K 672 次 1月前

#1楼
发帖时间:2024-04-18 16:38:20   |   回复数:0
游客组