Asuka601
隐世仙人♂

[2020] [其它] [剧情] [WEB-1080P] 秘密花园[无字片源].The.Secret.Garden.2020.1080p.WEB-DL.H264.AAC-BATWEB 1.29GB

-->

完整标题:秘密花园[无字片源].The.Secret.Garden.2020.1080p.WEB-DL.H264.AAC-BATWEB 1.29GB



◎标  题 秘密花园
◎片  名 The Secret Garden
◎年  代 2020
◎产  地 英国 / 法国 / 美国 / 中国大陆
◎类  别 剧情 / 奇幻
◎语  言 英语
◎上映日期 2022-08-19(中国大陆) / 2020-07-08(中国台湾) / 2020-08-07(美国网络)
◎IMDb评分 5.6/10 (9251人评价)
◎IMDb链接 https://www.imdb.com/title/tt2702920/
◎豆瓣评分 5.3/10 (2343人评价)
◎豆瓣链接 https://movie.douban.com/subject/30206883/
◎片  长 99分钟 / 100分钟(中国大陆)
◎导  演 马克·穆登 Marc Munden
◎编  剧 杰克·索恩 Jack Thorne
      弗朗西丝·霍奇森·伯内特 Frances Hodgson Burnett
◎演  员 迪克西·艾格瑞克斯 Dixie Egerickx
      伊登·黑赫斯特 Edan Hayhurst
      阿米尔·威尔森 Amir Wilson
      科林·费尔斯 Colin Firth
      朱丽·沃特斯 Julie Walters
      理查德·韩塞尔 Richard Hansell
      大卫·韦雷 David Verrey
      汤米·吉恩·苏里奇 Tommy Gene Surridge
      梅芙·德莫迪 Maeve Dermody
      伊希斯·戴维斯 Isis Davis
      鲁伯特·杨 Rupert Young
      杰玛·鲍威尔 Jemma Powell
      保罗·G·雷蒙德 Paul G. Raymond

◎简  介
    小女孩玛丽父母双亡,她生活在姨夫阴暗神秘的大房子里。随后,玛丽闯进了禁闭已久的花园,与迪肯、柯林等人找到了快乐的源泉。充满魔力的旅程揭开,快乐、爱心,改变了孩子们的人生。

点击图片可查看大图

软字幕无法在截图上展现,HDR版本/杜比视界版本截图会出现颜色异常,请使用支持的设备播放!

##### MediaInfo ######
General
Unique ID : 263111002951416221528356310996488622808 (0xC5F155FF63C9F14D4E8FD8530DA512D8)
Complete name : The.Secret.Garden.2020.1080p.WEB-DL.H264.AAC-BATWEB.mkv
Duration : 1 h 39 min
Overall bit rate : 1 861 kb/s

Video
ID : 1
Format : AVC
Format/Info : Advanced Video Codec
Format profile : High@L4
Format settings : CABAC / 3 Ref Frames
Format settings, CABAC : Yes
Format settings, Reference frames : 3 frames
Codec ID : V_MPEG4/ISO/AVC
Duration : 1 h 39 min
Bit rate : 1 669 kb/s
Width : 1 920 pixels
Height : 1 040 pixels
Display aspect ratio : 1.85:1
Frame rate mode : Variable
Frame rate : 23.976 (23976/1000) FPS
Original frame rate : 24.000 FPS
Color space : YUV
Chroma subsampling : 4:2:0
Bit depth : 8 bits
Scan type : Progressive
Bits/(Pixel*Frame) : 0.035
Stream size : 1.16 GiB (90%)
Language : Chinese
Default : Yes
Forced : No
Color range : Limited
Color primaries : BT.709
Transfer characteristics : BT.709
Matrix coefficients : BT.709

Audio
ID : 2
Format : AAC LC
Format/Info : Advanced Audio Codec Low Complexity
Codec ID : A_AAC-2
Duration : 1 h 39 min
Bit rate : 192 kb/s
Channel(s) : 2 channels
Channel layout : L R
Sampling rate : 44.1 kHz
Frame rate : 43.066 FPS (1024 SPF)
Compression mode : Lossy
Stream size : 135 MiB (10%)
Default : No
Forced : No


部分资源为软字幕,移动端推荐播放器:MxPlayer,nPlayer,infuse ,其他播放器请自行尝试。

部分资源为软字幕,电脑端推荐播放器:PotPlayer,完美解码,KMPLAYER,其他播放器请自行尝试。

下载端推荐纯BT下载软件:qBittorrent,Bitcomet,uTorrent ,其他下载软件请自行尝试。不支持吸血迅雷。



1 个附件 售价 大小 下载 时间

The.Secret.Garden.2020.1080p.WEB-DL.H264.AAC-BATWEB[1LOU.ME].torrent 0 金币 5.77K 427 次 1月前

#1楼
发帖时间:2024-04-18 16:36:09   |   回复数:0
游客组