Asuka601
隐世仙人♂

[2022] [大陆] [喜剧] [WEB-1080P] 猛龙过沟[国语配音/中文字幕].Way.of.the.Stone.2022.1080p.WEB-DL.H264.AAC-BATWEB 0.81GB

-->

完整标题:猛龙过沟[国语配音/中文字幕].Way.of.the.Stone.2022.1080p.WEB-DL.H264.AAC-BATWEB 0.81GB



◎标  题 猛龙过沟
◎年  代 2022
◎产  地 中国大陆
◎类  别 喜剧 / 爱情
◎语  言 汉语普通话
◎上映日期 2022-07-13(中国大陆)
◎IMDb链接 https://www.imdb.com/title//
◎豆瓣链接 https://movie.douban.com/subject/35268912/
◎片  长 72分钟
◎导  演 焦洋 Stephen Jiao
◎编  剧 史冰 Bing Shi
      焦洋 Stephen Jiao
◎演  员 周云鹏 Yunpeng Zhou
      靳阳阳 Yangyang Jin
      宋佳洋 Jiayang Song
      林昊然 Haoran Lin
      彭波 Bo Peng
      文松 Song Wen

◎简  介
    影片以一块价值百万的昂贵怀表为线索,农田中“不务正业”的武痴小伙石头,为向村民证明自己是全村人的希望,担起进城送表的重任,踏上了一条囧况不断的送表之路:途中不仅有美女出卖色相偷怀表,更有地头蛇威逼利诱骗怀表,最后还被自己人暗度陈仓掉了包。而在种种搞笑“事故”不断上演的同时,一场意料之外的浪漫“故事”也在悄悄展开……

点击图片可查看大图

软字幕无法在截图上展现,HDR版本/杜比视界版本截图会出现颜色异常,请使用支持的设备播放!

##### MediaInfo ######
General
Unique ID : 257263737041138153843911036856922278844 (0xC18B3187B999B18F9F364B9E40100BBC)
Complete name : Way.of.the.Stone.2022.1080p.WEB-DL.H264.AAC-BATWEB.mkv
Duration : 1 h 12 min
Overall bit rate : 1 613 kb/s

Video
ID : 1
Format : AVC
Format/Info : Advanced Video Codec
Format profile : High@L4
Format settings : CABAC / 3 Ref Frames
Format settings, CABAC : Yes
Format settings, Reference frames : 3 frames
Codec ID : V_MPEG4/ISO/AVC
Duration : 1 h 12 min
Bit rate : 1 421 kb/s
Width : 1 920 pixels
Height : 800 pixels
Display aspect ratio : 2.40:1
Frame rate mode : Constant
Frame rate : 25.000 FPS
Color space : YUV
Chroma subsampling : 4:2:0
Bit depth : 8 bits
Scan type : Progressive
Bits/(Pixel*Frame) : 0.037
Stream size : 734 MiB (88%)
Language : Chinese
Default : Yes
Forced : No
Color range : Limited
Color primaries : BT.709
Transfer characteristics : BT.709
Matrix coefficients : BT.709

Audio
ID : 2
Format : AAC LC
Format/Info : Advanced Audio Codec Low Complexity
Codec ID : A_AAC-2
Duration : 1 h 12 min
Bit rate : 192 kb/s
Channel(s) : 2 channels
Channel layout : L R
Sampling rate : 44.1 kHz
Frame rate : 43.066 FPS (1024 SPF)
Compression mode : Lossy
Stream size : 97.9 MiB (12%)
Default : No
Forced : No


部分资源为软字幕,移动端推荐播放器:MxPlayer,nPlayer,infuse ,其他播放器请自行尝试。

部分资源为软字幕,电脑端推荐播放器:PotPlayer,完美解码,KMPLAYER,其他播放器请自行尝试。

下载端推荐纯BT下载软件:qBittorrent,Bitcomet,uTorrent ,其他下载软件请自行尝试。不支持吸血迅雷。



1 个附件 售价 大小 下载 时间

Way.of.the.Stone.2022.1080p.WEB-DL.H264.AAC-BATWEB[1LOU.ME].torrent 0 金币 4.59K 434 次 1月前

#1楼
发帖时间:2024-04-18 16:34:01   |   回复数:0
游客组