Asuka601
隐世仙人♂

[2024] [大陆] [剧情] [WEB-4K] 灿烂的她[杜比视界版本][国语配音/中文字幕].Remember.Me.2024.2160p.WEB-DL.H265.DV.AAC-MOMOWEB 6.69GB

-->

完整标题:灿烂的她[杜比视界版本][国语配音/中文字幕].Remember.Me.2024.2160p.WEB-DL.H265.DV.AAC-MOMOWEB 6.69GB



◎标  题 灿烂的她
◎译  名 穿越黑暗的我 / 中国版季春奶奶 / Remember Me
◎年  代 2024
◎产  地 中国大陆
◎类  别 剧情 / 家庭
◎语  言 汉语普通话
◎上映日期 2024-03-15(中国大陆)
◎IMDb评分 3/10 (7人评价)
◎IMDb链接 https://www.imdb.com/title/tt30959032/
◎豆瓣评分 6.2/10 (23797人评价)
◎豆瓣链接 https://movie.douban.com/subject/35633969/
◎片  长 116分钟
◎导  演 徐伟 Wei Xu
◎编  剧 张莉 Li Zhang
◎演  员 惠英红 Kara Wai Ying Hung
      刘浩存 Haocun Liu
      张子贤 Zixian Zhang
      刘欢 Huan Liu
      苇青 Qing Wei
      刘奕铁 Yitie Liu
      胡宝森 Baosen Hu
      廖银玥 Yinyue Liao
      葛四 Si Ge
      鄂靖文 Jingwen E
      荣梓杉 Zishan Rong
      余皑磊 Ailei Yu
      钱锦 Miya
      李祉默 Zhimo Li
      林源 Yuan Lin

◎简  介
    慈祥宽容的奶奶(惠英红 饰)与十二年前意外走失的孙女(刘浩存 饰)重逢,祖孙二人从生疏到彼此依偎。相处期间,她们身上的秘密也逐渐被揭开。最终奶奶拯救了这个本对人生不抱希望的“孙女”。

点击图片可查看大图

软字幕无法在截图上展现,HDR版本/杜比视界版本截图会出现颜色异常,请使用支持的设备播放!

##### MediaInfo ######
General
Unique ID : 136440204586612273392635493809795385985 (0x66A56D74C79E5B3DE451D13673904A81)
Complete name : Remember.Me.2024.2160p.WEB-DL.H265.DV.AAC-MOMOWEB.mkv
Duration : 1 h 55 min
Overall bit rate : 8 271 kb/s

Video
ID : 1
Format : HEVC
Format/Info : High Efficiency Video Coding
Format profile : Main 10@L5@Main
HDR format : Dolby Vision, Version 1.0, dvhe.05.06, BL+RPU
Codec ID : V_MPEGH/ISO/HEVC
Duration : 1 h 55 min
Bit rate : 7 874 kb/s
Width : 3 840 pixels
Height : 1 608 pixels
Display aspect ratio : 2.40:1
Frame rate mode : Constant
Frame rate : 24.000 FPS
Color space : YUV
Chroma subsampling : 4:2:0
Bit depth : 10 bits
Bits/(Pixel*Frame) : 0.053
Stream size : 6.37 GiB (95%)
Writing library : Tencent-V265-1.6.9.1-p1k48g8lh40f4ra1.
Default : Yes
Forced : No
Color range : Full

Audio
ID : 2
Format : AAC LC
Format/Info : Advanced Audio Codec Low Complexity
Codec ID : A_AAC-2
Duration : 1 h 55 min
Bit rate : 394 kb/s
Channel(s) : 6 channels
Channel layout : L R C Cb Lb Rb
Sampling rate : 48.0 kHz
Frame rate : 46.875 FPS (1024 SPF)
Compression mode : Lossy
Stream size : 327 MiB (5%)
Default : No
Forced : No


部分资源为软字幕,移动端推荐播放器:MxPlayer,nPlayer,infuse ,其他播放器请自行尝试。

部分资源为软字幕,电脑端推荐播放器:PotPlayer,完美解码,KMPLAYER,其他播放器请自行尝试。

下载端推荐纯BT下载软件:qBittorrent,Bitcomet,uTorrent ,其他下载软件请自行尝试。不支持吸血迅雷。



1 个附件 售价 大小 下载 时间

Remember.Me.2024.2160p.WEB-DL.H265.DV.AAC-MOMOWEB[1LOU.ME].torrent 0 金币 19.29K 819 次 1月前

#1楼
发帖时间:2024-04-18 16:32:50   |   回复数:0
游客组