Asuka601
隐世仙人♂

[2024] [大陆] [剧情] [WEB-4K] 灿烂的她[国语配音/中文字幕].Remember.Me.2024.2160p.WEB-DL.H265.DDP5.1-MOMOWEB 10.91GB

-->

完整标题:灿烂的她[国语配音/中文字幕].Remember.Me.2024.2160p.WEB-DL.H265.DDP5.1-MOMOWEB 10.91GB



◎标  题 灿烂的她
◎译  名 穿越黑暗的我 / 中国版季春奶奶 / Remember Me
◎年  代 2024
◎产  地 中国大陆
◎类  别 剧情 / 家庭
◎语  言 汉语普通话
◎上映日期 2024-03-15(中国大陆)
◎IMDb评分 3/10 (7人评价)
◎IMDb链接 https://www.imdb.com/title/tt30959032/
◎豆瓣评分 6.2/10 (23797人评价)
◎豆瓣链接 https://movie.douban.com/subject/35633969/
◎片  长 116分钟
◎导  演 徐伟 Wei Xu
◎编  剧 张莉 Li Zhang
◎演  员 惠英红 Kara Wai Ying Hung
      刘浩存 Haocun Liu
      张子贤 Zixian Zhang
      刘欢 Huan Liu
      苇青 Qing Wei
      刘奕铁 Yitie Liu
      胡宝森 Baosen Hu
      廖银玥 Yinyue Liao
      葛四 Si Ge
      鄂靖文 Jingwen E
      荣梓杉 Zishan Rong
      余皑磊 Ailei Yu
      钱锦 Miya
      李祉默 Zhimo Li
      林源 Yuan Lin

◎简  介
    慈祥宽容的奶奶(惠英红 饰)与十二年前意外走失的孙女(刘浩存 饰)重逢,祖孙二人从生疏到彼此依偎。相处期间,她们身上的秘密也逐渐被揭开。最终奶奶拯救了这个本对人生不抱希望的“孙女”。

点击图片可查看大图

软字幕无法在截图上展现,HDR版本/杜比视界版本截图会出现颜色异常,请使用支持的设备播放!

##### MediaInfo ######
General
Unique ID : 146045559226807263959696589958059218015 (0x6DDF5A00E1F7EA5B1C132B672935545F)
Complete name : Remember.Me.2024.2160p.WEB-DL.H265.DDP5.1-MOMOWEB.mkv
Duration : 1 h 55 min
Overall bit rate : 13.5 Mb/s

Video
ID : 1
Format : HEVC
Format/Info : High Efficiency Video Coding
Format profile : Main@L5@Main
Codec ID : V_MPEGH/ISO/HEVC
Duration : 1 h 55 min
Bit rate : 13.0 Mb/s
Width : 3 840 pixels
Height : 1 608 pixels
Display aspect ratio : 2.40:1
Frame rate mode : Constant
Frame rate : 24.000 FPS
Color space : YUV
Chroma subsampling : 4:2:0
Bit depth : 8 bits
Bits/(Pixel*Frame) : 0.088
Stream size : 10.6 GiB (97%)
Default : No
Forced : No
Color range : Limited

Audio #1
ID : 2
Format : AAC LC
Format/Info : Advanced Audio Codec Low Complexity
Codec ID : A_AAC-2
Duration : 1 h 55 min
Bit rate : 187 kb/s
Channel(s) : 2 channels
Channel layout : L R
Sampling rate : 44.1 kHz
Frame rate : 43.066 FPS (1024 SPF)
Compression mode : Lossy
Stream size : 155 MiB (1%)
Default : No
Forced : No

Audio #2
ID : 3
Format : E-AC-3
Format/Info : Enhanced AC-3
Commercial name : Dolby Digital Plus
Codec ID : A_EAC3
Duration : 1 h 55 min
Bit rate mode : Constant
Bit rate : 256 kb/s
Channel(s) : 6 channels
Channel layout : L R C LFE Ls Rs
Sampling rate : 48.0 kHz
Frame rate : 31.250 FPS (1536 SPF)
Compression mode : Lossy
Delay relative to video : -167 ms
Stream size : 212 MiB (2%)
Service kind : Complete Main
Default : Yes
Forced : No


部分资源为软字幕,移动端推荐播放器:MxPlayer,nPlayer,infuse ,其他播放器请自行尝试。

部分资源为软字幕,电脑端推荐播放器:PotPlayer,完美解码,KMPLAYER,其他播放器请自行尝试。

下载端推荐纯BT下载软件:qBittorrent,Bitcomet,uTorrent ,其他下载软件请自行尝试。不支持吸血迅雷。



1 个附件 售价 大小 下载 时间

Remember.Me.2024.2160p.WEB-DL.H265.DDP5.1-MOMOWEB[1LOU.ME].torrent 0 金币 29.84K 1467 次 1月前

#1楼
发帖时间:2024-04-18 16:32:06   |   回复数:0
游客组