Asuka601
隐世仙人♂

[2022] [大陆] [动作] [WEB-1080P] 民间怪谈:水猴子[国语配音/中文字幕].Folk.Legends-.The.Water.Monkeys.2022.1080p.WEB-DL.H264.AAC-B

-->

完整标题:民间怪谈:水猴子[国语配音/中文字幕].Folk.Legends-.The.Water.Monkeys.2022.1080p.WEB-DL.H264.AAC-BATWEB 0.78GB



◎标  题 民间怪谈:水猴子
◎译  名 水猴子
◎年  代 2022
◎产  地 中国大陆
◎类  别 动作 / 悬疑 / 惊悚
◎语  言 汉语普通话
◎上映日期 2022-06-14(中国大陆)
◎IMDb链接 https://www.imdb.com/title//
◎豆瓣评分 3.1/10 (802人评价)
◎豆瓣链接 https://movie.douban.com/subject/35295099/
◎片  长 71分钟
◎演  员 李智楠 Zhi-nan Li
      依灵 Yi Ling
      沈保平 Baoping Shen
      江水 Shui Jiang
      俞碧程 Bicheng Yu

◎简  介
    “水鬼”俗称“水猴子”,民间传言是死者怨气所化。那些淹死、投水自杀或意外而死的人,会徘徊在淹死的地方,变成水鬼,然后在水里耐心的等待、引诱,或是强迫人落水而死,来当自己的替死鬼。千百年来,水鬼无忧无虑的靠这个方法投胎转世,摆脱来自地狱的苦难。民国时期,有一处四面环山叫做“天水村”的地方,太姥爷就在那里出生,村民们在村长钱兴的带领下,虽不富足,却也过着安稳的日子。直到有一天晚上,太姥爷坐船回来,村里开始频繁出现各种诡异的事……

点击图片可查看大图

软字幕无法在截图上展现,HDR版本/杜比视界版本截图会出现颜色异常,请使用支持的设备播放!

##### MediaInfo ######
General
Unique ID : 81020637029313218163516213527917111182 (0x3CF401D118AFD302406FCA8481AC278E)
Complete name : Folk.Legends-.The.Water.Monkeys.2022.1080p.WEB-DL.H264.AAC-BATWEB.mkv
Duration : 1 h 11 min
Overall bit rate : 1 557 kb/s

Video
ID : 1
Format : AVC
Format/Info : Advanced Video Codec
Format profile : High@L4
Format settings : CABAC / 3 Ref Frames
Format settings, CABAC : Yes
Format settings, Reference frames : 3 frames
Codec ID : V_MPEG4/ISO/AVC
Duration : 1 h 11 min
Bit rate : 1 365 kb/s
Width : 1 920 pixels
Height : 816 pixels
Display aspect ratio : 2.35:1
Frame rate mode : Constant
Frame rate : 25.000 FPS
Color space : YUV
Chroma subsampling : 4:2:0
Bit depth : 8 bits
Scan type : Progressive
Bits/(Pixel*Frame) : 0.035
Stream size : 695 MiB (88%)
Writing library : qiyi.com vtc-test
Language : Chinese
Default : Yes
Forced : No
Color range : Limited
Color primaries : BT.709
Transfer characteristics : BT.709
Matrix coefficients : BT.709

Audio
ID : 2
Format : AAC LC
Format/Info : Advanced Audio Codec Low Complexity
Codec ID : A_AAC-2
Duration : 1 h 11 min
Bit rate : 192 kb/s
Channel(s) : 2 channels
Channel layout : L R
Sampling rate : 44.1 kHz
Frame rate : 43.066 FPS (1024 SPF)
Compression mode : Lossy
Stream size : 96.8 MiB (12%)
Default : No
Forced : No


部分资源为软字幕,移动端推荐播放器:MxPlayer,nPlayer,infuse ,其他播放器请自行尝试。

部分资源为软字幕,电脑端推荐播放器:PotPlayer,完美解码,KMPLAYER,其他播放器请自行尝试。

下载端推荐纯BT下载软件:qBittorrent,Bitcomet,uTorrent ,其他下载软件请自行尝试。不支持吸血迅雷。



1 个附件 售价 大小 下载 时间

Folk.Legends-.The.Water.Monkeys.2022.1080p.WEB-DL.H264.AAC-BATWEB[1LOU.ME].torrent 0 金币 4.53K 476 次 1月前

#1楼
发帖时间:2024-04-18 16:27:37   |   回复数:0
游客组