Asuka601
隐世仙人♂

[2022] [欧美] [剧情] [WEB-4K] 木偶奇遇记[中文字幕].Pinocchio.2022.2160p.WEB-DL.H265.AAC-BATWEB 3.88GB

-->

完整标题:木偶奇遇记[中文字幕].Pinocchio.2022.2160p.WEB-DL.H265.AAC-BATWEB 3.88GB



◎标  题 木偶奇遇记
◎译  名 匹诺曹
◎片  名 Pinocchio
◎年  代 2022
◎产  地 美国
◎类  别 剧情 / 喜剧 / 歌舞 / 家庭 / 奇幻 / 冒险
◎语  言 英语
◎上映日期 2023(中国大陆) / 2022-09-08(美国网络)
◎IMDb评分 5.1/10 (39218人评价)
◎IMDb链接 https://www.imdb.com/title/tt4593060/
◎豆瓣评分 5.5/10 (3993人评价)
◎豆瓣链接 https://movie.douban.com/subject/26363200/
◎片  长 105分钟
◎导  演 罗伯特·泽米吉斯 Robert Zemeckis
◎编  剧 罗伯特·泽米吉斯 Robert Zemeckis
      克里斯·韦兹 Chris Weitz
      卡洛·科洛迪 Carlo Collodi
      西蒙·法纳比 Simon Farnaby
◎演  员 约瑟夫·高登-莱维特 Joseph Gordon-Levitt
      汤姆·汉克斯 Tom Hanks
      本杰明·埃文·安斯沃思 Benjamin Evan Ainsworth
      安格斯·瑞特 Angus Wright
      辛西娅·艾莉佛 Cynthia Erivo
      希拉·阿蒂姆 Sheila Atim
      洛兰·布拉科 Lorraine Bracco
      科甘-迈克尔·凯 Keegan-Michael Key
      詹米·德米特鲁 Jamie Demetriou
      朱塞佩·巴蒂斯通 Giuseppe Battiston
      基扬·拉玛雅 Kyanne Lamaya
      杰奎塔·塔莱 Jaquita Ta'le
      勒温·劳埃德 Lewin Lloyd
      卢克·伊万斯 Luke Evans
      艾维·坦普尔顿 Evie Templeton
      康纳·特纳 Conall Turner
      汉娜·弗林 Hannah Flynn
      米歇尔·托马斯 Michelle Thomas

◎简  介
    真人版《木偶奇遇记》,重新讲述木偶匹诺曹努力成为真男孩的动人故事。

点击图片可查看大图

软字幕无法在截图上展现,HDR版本/杜比视界版本截图会出现颜色异常,请使用支持的设备播放!

##### MediaInfo ######
General
Unique ID : 283554762398454442533023138276685164529 (0xD552A928B9D9C3BB495F718473FCAFF1)
Complete name : Pinocchio.2022.2160p.WEB-DL.H265.AAC-BATWEB.mkv
Duration : 1 h 40 min
Overall bit rate : 5 502 kb/s

Video
ID : 1
Format : HEVC
Format/Info : High Efficiency Video Coding
Format profile : Main@L5@Main
Codec ID : V_MPEGH/ISO/HEVC
Duration : 1 h 40 min
Bit rate : 5 310 kb/s
Width : 3 840 pixels
Height : 2 072 pixels
Display aspect ratio : 1.85:1
Frame rate mode : Constant
Frame rate : 25.000 FPS
Color space : YUV
Chroma subsampling : 4:2:0
Bit depth : 8 bits
Bits/(Pixel*Frame) : 0.027
Stream size : 3.74 GiB (97%)
Language : Chinese
Default : Yes
Forced : No

Audio
ID : 2
Format : AAC LC
Format/Info : Advanced Audio Codec Low Complexity
Codec ID : A_AAC-2
Duration : 1 h 40 min
Bit rate : 192 kb/s
Channel(s) : 2 channels
Channel layout : L R
Sampling rate : 44.1 kHz
Frame rate : 43.066 FPS (1024 SPF)
Compression mode : Lossy
Stream size : 137 MiB (3%)
Default : No
Forced : No


部分资源为软字幕,移动端推荐播放器:MxPlayer,nPlayer,infuse ,其他播放器请自行尝试。

部分资源为软字幕,电脑端推荐播放器:PotPlayer,完美解码,KMPLAYER,其他播放器请自行尝试。

下载端推荐纯BT下载软件:qBittorrent,Bitcomet,uTorrent ,其他下载软件请自行尝试。不支持吸血迅雷。



1 个附件 售价 大小 下载 时间

Pinocchio.2022.2160p.WEB-DL.H265.AAC-BATWEB[1LOU.ME].torrent 0 金币 12.22K 574 次 1月前

#1楼
发帖时间:2024-04-18 16:25:15   |   回复数:0
游客组