Asuka601
隐世仙人♂

[2022] [大陆] [剧情] [WEB-1080P] 曼殊沙华[国语配音/中文字幕].Lycoris.Radiata.2022.1080p.WEB-DL.H264.AAC-BATWEB 0.96GB

-->

完整标题:曼殊沙华[国语配音/中文字幕].Lycoris.Radiata.2022.1080p.WEB-DL.H264.AAC-BATWEB 0.96GB



◎标  题 曼殊沙华
◎译  名 曼殊沙影 / 曼珠沙华
◎年  代 2022
◎产  地 中国大陆
◎类  别 剧情
◎语  言 汉语普通话
◎上映日期 2022-08-09(中国大陆)
◎IMDb链接 https://www.imdb.com/title//
◎豆瓣评分 4.2/10 (893人评价)
◎豆瓣链接 https://movie.douban.com/subject/35295150/
◎片  长 92分钟
◎编  剧 方岚 Lan Fang
      沧月 Yang Wang
◎演  员 南笙 Sheng Nan
      李嘉铭 Jiaming Li
      谭晓凡 Xiaofan Tan
      王星辰 Xingchen Wang
      黄弼兴 Bixing Huang

◎简  介
    该片讲述了冥府引渡仙司曼殊和叶仙沙华超虐心的爱情故事。

点击图片可查看大图

软字幕无法在截图上展现,HDR版本/杜比视界版本截图会出现颜色异常,请使用支持的设备播放!

##### MediaInfo ######
General
Unique ID : 255978134433466722804714522272722133773 (0xC093986D891845018CC417D53905230D)
Complete name : Lycoris.Radiata.2022.1080p.WEB-DL.H264.AAC-BATWEB.mkv
Duration : 1 h 31 min
Overall bit rate : 1 495 kb/s

Video
ID : 1
Format : AVC
Format/Info : Advanced Video Codec
Format profile : High@L4
Format settings : CABAC / 3 Ref Frames
Format settings, CABAC : Yes
Format settings, Reference frames : 3 frames
Codec ID : V_MPEG4/ISO/AVC
Duration : 1 h 31 min
Bit rate : 1 303 kb/s
Width : 1 920 pixels
Height : 800 pixels
Display aspect ratio : 2.40:1
Frame rate mode : Constant
Frame rate : 24.000 FPS
Color space : YUV
Chroma subsampling : 4:2:0
Bit depth : 8 bits
Scan type : Progressive
Bits/(Pixel*Frame) : 0.035
Stream size : 856 MiB (87%)
Language : Chinese
Default : Yes
Forced : No
Color range : Limited
Color primaries : BT.709
Transfer characteristics : BT.709
Matrix coefficients : BT.709

Audio
ID : 2
Format : AAC LC
Format/Info : Advanced Audio Codec Low Complexity
Codec ID : A_AAC-2
Duration : 1 h 31 min
Bit rate : 192 kb/s
Channel(s) : 2 channels
Channel layout : L R
Sampling rate : 44.1 kHz
Frame rate : 43.066 FPS (1024 SPF)
Compression mode : Lossy
Stream size : 125 MiB (13%)
Default : No
Forced : No


部分资源为软字幕,移动端推荐播放器:MxPlayer,nPlayer,infuse ,其他播放器请自行尝试。

部分资源为软字幕,电脑端推荐播放器:PotPlayer,完美解码,KMPLAYER,其他播放器请自行尝试。

下载端推荐纯BT下载软件:qBittorrent,Bitcomet,uTorrent ,其他下载软件请自行尝试。不支持吸血迅雷。



1 个附件 售价 大小 下载 时间

Lycoris.Radiata.2022.1080p.WEB-DL.H264.AAC-BATWEB[1LOU.ME].torrent 0 金币 4.94K 469 次 1月前

#1楼
发帖时间:2024-04-18 16:23:12   |   回复数:0
游客组