Asuka601
隐世仙人♂

[2022] [大陆] [剧情] [WEB-1080P] 摸金之诡棺伏军[国语配音/中文字幕].Touching.Gold.Captain.2022.1080p.WEB-DL.H264.AAC-BATWEB 1.14G

-->

完整标题:摸金之诡棺伏军[国语配音/中文字幕].Touching.Gold.Captain.2022.1080p.WEB-DL.H264.AAC-BATWEB 1.14GB



◎标  题 摸金之诡棺伏军
◎译  名 摸金
◎年  代 2022
◎产  地 中国大陆
◎类  别 剧情 / 悬疑 / 奇幻
◎语  言 汉语普通话
◎上映日期 2022-05-27(中国大陆网络)
◎IMDb链接 https://www.imdb.com/title//
◎豆瓣评分 3.6/10 (1005人评价)
◎豆瓣链接 https://movie.douban.com/subject/35908183/
◎片  长 84分钟
◎导  演 吴鹰翔 Yingxiang Wu
◎演  员 王珞嘉 Luojia Wang
      姜超 Chao Jiang

◎简  介
    平凡小镇流传千年古墓传说,墓中不仅珍宝无数,还藏有可治百病的秘药,然众多摸金人探寻都不知去处,无人归来。摸金校尉后人曹顺(王珞嘉 饰)赶鸭子上架误打误撞跌入古墓。这个墓有点东西,这么大的镇墓神兽是真的存在的吗?

点击图片可查看大图

软字幕无法在截图上展现,HDR版本/杜比视界版本截图会出现颜色异常,请使用支持的设备播放!

##### MediaInfo ######
General
Unique ID : 22357007971268569094882026159041393888 (0x10D1CD98BD6EDB8775AEFA63E09BB4E0)
Complete name : Touching.Gold.Captain.2022.1080p.WEB-DL.H264.AAC-BATWEB.mkv
Duration : 1 h 24 min
Overall bit rate : 1 933 kb/s

Video
ID : 1
Format : AVC
Format/Info : Advanced Video Codec
Format profile : High@L4
Format settings : CABAC / 3 Ref Frames
Format settings, CABAC : Yes
Format settings, Reference frames : 3 frames
Codec ID : V_MPEG4/ISO/AVC
Duration : 1 h 24 min
Bit rate : 1 741 kb/s
Width : 1 920 pixels
Height : 728 pixels
Display aspect ratio : 2.637
Frame rate mode : Constant
Frame rate : 25.000 FPS
Color space : YUV
Chroma subsampling : 4:2:0
Bit depth : 8 bits
Scan type : Progressive
Bits/(Pixel*Frame) : 0.050
Stream size : 1.02 GiB (90%)
Language : Chinese
Default : Yes
Forced : No
Color range : Limited
Color primaries : BT.709
Transfer characteristics : BT.709
Matrix coefficients : BT.709

Audio
ID : 2
Format : AAC LC
Format/Info : Advanced Audio Codec Low Complexity
Codec ID : A_AAC-2
Duration : 1 h 24 min
Bit rate : 192 kb/s
Channel(s) : 2 channels
Channel layout : L R
Sampling rate : 44.1 kHz
Frame rate : 43.066 FPS (1024 SPF)
Compression mode : Lossy
Stream size : 114 MiB (10%)
Default : No
Forced : No


部分资源为软字幕,移动端推荐播放器:MxPlayer,nPlayer,infuse ,其他播放器请自行尝试。

部分资源为软字幕,电脑端推荐播放器:PotPlayer,完美解码,KMPLAYER,其他播放器请自行尝试。

下载端推荐纯BT下载软件:qBittorrent,Bitcomet,uTorrent ,其他下载软件请自行尝试。不支持吸血迅雷。



1 个附件 售价 大小 下载 时间

Touching.Gold.Captain.2022.1080p.WEB-DL.H264.AAC-BATWEB[1LOU.ME].torrent 0 金币 5.41K 462 次 1月前

#1楼
发帖时间:2024-04-18 16:18:46   |   回复数:0
游客组