Asuka601
隐世仙人♂

[2022] [大陆] [动作] [WEB-4K] 排爆手[杜比视界版本][国语配音/中文字幕].The.EOD.Squad.2022.2160p.WEB-DL.H265.DV.DDP2.0-BATWEB 9.8

-->

完整标题:排爆手[杜比视界版本][国语配音/中文字幕].The.EOD.Squad.2022.2160p.WEB-DL.H265.DV.DDP2.0-BATWEB 9.89GB



◎标  题 排爆手
◎译  名 排爆专家 / The EOD Squad
◎年  代 2022
◎产  地 中国大陆
◎类  别 动作 / 战争
◎语  言 汉语普通话
◎上映日期 2022-07-30(中国大陆网络)
◎IMDb评分 4.4/10 (29人评价)
◎IMDb链接 https://www.imdb.com/title/tt14113678/
◎豆瓣评分 4.9/10 (2784人评价)
◎豆瓣链接 https://movie.douban.com/subject/35369572/
◎片  长 84分钟
◎导  演 阚家伟 Ka-Wai Kam
◎演  员 刘烨 Ye Liu
      余男 Nan Yu
      于荣光 Rongguang Yu
      王韬 Tao Wang
      洪浚嘉 Junjia Hong
      艾东 Dong Ai
      林迪安 Dion Lam
      杜志国 Zhiguo Du

◎简  介
    讲述了武警部队中一支特殊力量——排爆手,在与边境毒贩生死较量的同时,身处“无声的战场”与时间赛跑的英雄事迹......

点击图片可查看大图

软字幕无法在截图上展现,HDR版本/杜比视界版本截图会出现颜色异常,请使用支持的设备播放!

##### MediaInfo ######
General
Complete name : The.EOD.Squad.2022.2160p.WEB-DL.H265.DV.DDP2.0-BATWEB.mp4
Duration : 1 h 24 min
Overall bit rate : 16.8 Mb/s

Video
ID : 1
Format : HEVC
Format/Info : High Efficiency Video Coding
Format profile : Main 10@L5@High
HDR format : Dolby Vision, Version 1.0, dvhe.05.06, BL+RPU
Codec ID : dvh1
Duration : 1 h 24 min
Source duration : 2 min 50 s
Bit rate : 16.7 Mb/s
Width : 3 840 pixels
Height : 1 632 pixels
Display aspect ratio : 2.35:1
Frame rate mode : Constant
Frame rate : 24.000 FPS
Color space : YUV
Chroma subsampling : 4:2:0
Bit depth : 10 bits
Compression mode : Lossy
Bits/(Pixel*Frame) : 0.111
Stream size : 9.83 GiB (99%)
Source stream size : 9.83 GiB (99%)
Default : Yes
Alternate group : 1
Encoded date : UTC 2024-04-18 05:04:45
Tagged date : UTC 2024-04-18 05:06:10
mdhd_Duration : 5059208
Codec configuration box : hvcC+dvcC

Audio
ID : 2
Format : E-AC-3
Format/Info : Enhanced AC-3
Commercial name : Dolby Digital Plus
Codec ID : ec-3
Duration : 1 h 24 min
Bit rate mode : Constant
Bit rate : 96.0 kb/s
Maximum bit rate : 101 kb/s
Channel(s) : 2 channels
Channel layout : L R
Sampling rate : 48.0 kHz
Frame rate : 31.250 FPS (1536 SPF)
Compression mode : Lossy
Stream size : 57.9 MiB (1%)
Title : 普通话
Service kind : Complete Main
Default : Yes
Alternate group : 1
Encoded date : UTC 2024-04-18 05:06:10
Tagged date : UTC 2024-04-18 05:06:10


部分资源为软字幕,移动端推荐播放器:MxPlayer,nPlayer,infuse ,其他播放器请自行尝试。

部分资源为软字幕,电脑端推荐播放器:PotPlayer,完美解码,KMPLAYER,其他播放器请自行尝试。

下载端推荐纯BT下载软件:qBittorrent,Bitcomet,uTorrent ,其他下载软件请自行尝试。不支持吸血迅雷。



1 个附件 售价 大小 下载 时间

The.EOD.Squad.2022.2160p.WEB-DL.H265.DV.DDP2.0-BATWEB[1LOU.ME].torrent 0 金币 27.29K 504 次 1月前

#1楼
发帖时间:2024-04-18 16:17:05   |   回复数:0
游客组