Asuka601
隐世仙人♂

[2022] [大陆] [剧情] [WEB-4K] 您好,北京[国语配音/中文字幕].Farewell,.Beijing.2022.2160p.WEB-DL.H265.AAC-BATWEB 3.36GB

-->

完整标题:您好,北京[国语配音/中文字幕].Farewell,.Beijing.2022.2160p.WEB-DL.H265.AAC-BATWEB 3.36GB



◎标  题 您好,北京
◎译  名 你好,北京 / 北京欢迎你 / Farewell Beijing
◎年  代 2022
◎产  地 中国大陆
◎类  别 剧情
◎语  言 汉语普通话
◎上映日期 2022-11-18(中国大陆) / 2022-08-12(北京国际电影节)
◎IMDb评分 5.3/10 (8人评价)
◎IMDb链接 https://www.imdb.com/title/tt16757480/
◎豆瓣评分 4.2/10 (3299人评价)
◎豆瓣链接 https://movie.douban.com/subject/35653109/
◎片  长 110分钟
◎导  演 曹茜茜 Xixi Cao
◎编  剧 曹茜茜 Xixi Cao
      吴谦 Modest Woo
      汪剑秋 Jianqiu Wang
      王琳 Lin Wang
      任威龙 Weilong Ren
◎演  员 安泽豪 Zehao An
      刘犇
      李斐然 Feiran Li
      海一天 Yitian Hai
      果靖霖 Jinglin Guo
      张晞临 Xilin Zhang
      王茜华 Qianhua Wang
      徐峥 Zheng Xu
      白永成 Yongcheng Bai
      沈晓海 Xiaohai Shen
      孙逊 Xun Sun
      傅程鹏 Hongming Fu
      李晟泽 Shengze Li
      江平 Ping Jiang
      王新 Xin Wang
      李宜娟 Yijuan Li
      曹茜茜 Xixi Cao

◎简  介
    讲述了一位创业中年人,一位快递员和一位年轻的歌手,在北京奋斗生活的温暖励志感人故事。

点击图片可查看大图

软字幕无法在截图上展现,HDR版本/杜比视界版本截图会出现颜色异常,请使用支持的设备播放!

##### MediaInfo ######
General
Unique ID : 292596038523747147984170475297276070954 (0xDC1FF27D05D67302FA1559ABB25E8C2A)
Complete name : Farewell,.Beijing.2022.2160p.WEB-DL.H265.AAC-BATWEB.mkv
Duration : 1 h 50 min
Overall bit rate : 4 361 kb/s

Video
ID : 1
Format : HEVC
Format/Info : High Efficiency Video Coding
Format profile : Main@L5@Main
Codec ID : V_MPEGH/ISO/HEVC
Duration : 1 h 50 min
Bit rate : 4 169 kb/s
Width : 3 840 pixels
Height : 1 616 pixels
Display aspect ratio : 2.40:1
Frame rate mode : Constant
Frame rate : 24.000 FPS
Color space : YUV
Chroma subsampling : 4:2:0
Bit depth : 8 bits
Bits/(Pixel*Frame) : 0.028
Stream size : 3.21 GiB (96%)
Language : Chinese
Default : Yes
Forced : No

Audio
ID : 2
Format : AAC LC
Format/Info : Advanced Audio Codec Low Complexity
Codec ID : A_AAC-2
Duration : 1 h 50 min
Bit rate : 192 kb/s
Channel(s) : 2 channels
Channel layout : L R
Sampling rate : 44.1 kHz
Frame rate : 43.066 FPS (1024 SPF)
Compression mode : Lossy
Stream size : 150 MiB (4%)
Default : No
Forced : No


部分资源为软字幕,移动端推荐播放器:MxPlayer,nPlayer,infuse ,其他播放器请自行尝试。

部分资源为软字幕,电脑端推荐播放器:PotPlayer,完美解码,KMPLAYER,其他播放器请自行尝试。

下载端推荐纯BT下载软件:qBittorrent,Bitcomet,uTorrent ,其他下载软件请自行尝试。不支持吸血迅雷。



1 个附件 售价 大小 下载 时间

Farewell,.Beijing.2022.2160p.WEB-DL.H265.AAC-BATWEB[1LOU.ME].torrent 0 金币 10.94K 560 次 1月前

#1楼
发帖时间:2024-04-18 16:12:44   |   回复数:0
游客组