Asuka601
隐世仙人♂

[2022] [大陆] [喜剧] [WEB-1080P] 奇妙能力哥[国语配音/中文字幕].Mr.No.Problem.2022.1080p.WEB-DL.H264.AAC-BATWEB 0.81GB

-->

完整标题:奇妙能力哥[国语配音/中文字幕].Mr.No.Problem.2022.1080p.WEB-DL.H264.AAC-BATWEB 0.81GB



◎标  题 奇妙能力哥
◎年  代 2022
◎产  地 中国大陆
◎类  别 喜剧 / 动作 / 悬疑
◎语  言 汉语普通话
◎上映日期 2022-09-14(中国大陆网络)
◎IMDb链接 https://www.imdb.com/title//
◎豆瓣链接 https://movie.douban.com/subject/36090145/
◎片  长 81分钟
◎导  演 张凯 Kai Zhang
◎编  剧 张凯 Kai Zhang
      徐晓璐 Xiaolu Xu
◎演  员 王元虎 Yuanhu Wang
      姚晓棠 Xiaotang Yao
      许慧强 Huiqiang Xu

◎简  介
    故事讲述了帮人解决各类麻烦的小野事务所主理人张小野和立志用笔头惩恶扬善的新晋报社记者鹿菲,因为一个诈骗敛财组织而交织在一起打击黑暗势力的故事。   极具社会正义感的女记者鹿菲为了拯救因诈骗组织而致幻昏迷的母亲,在潜入团伙窝点调查时意外与“没问题先生”张小野发生了车祸。张小野帮助她设计骗局进入内部的过程中又与正在直播的十八线演员郑正好相遇,被迫入局的张小野和郑正好受鹿菲的赤子之心所打动,三人决定统一战线深入敌方搜索证据。与此同时,警方也在持续调查并掌握了大量证据,最终在主人公的协助下获得重要资料一举扫除了这个庞大的诈骗敛财组织,将其缉拿归案。事后三人主动向警方承认私自介入调查的错误,警方念其提供了重要线索并积极配合的基础上进行批评教育。三人此行获得了警民配合、打击犯罪这一份更有价值的财富,决心今后发挥所长做些更有意义的事。张小野和鹿菲二人成为一组扫除迷信、拆穿骗局的“没问题”搭档,一同弘扬善良与正义,击破虚假与封建蒙昧,帮助更多需要帮助的人。

点击图片可查看大图

软字幕无法在截图上展现,HDR版本/杜比视界版本截图会出现颜色异常,请使用支持的设备播放!

##### MediaInfo ######
General
Unique ID : 32342464460295705875489167129115554641 (0x1854EE9CA8DDEDFABBE932162726F351)
Complete name : Mr.No.Problem.2022.1080p.WEB-DL.H264.AAC-BATWEB.mkv
Duration : 1 h 21 min
Overall bit rate : 1 426 kb/s

Video
ID : 1
Format : AVC
Format/Info : Advanced Video Codec
Format profile : High@L4
Format settings : CABAC / 3 Ref Frames
Format settings, CABAC : Yes
Format settings, Reference frames : 3 frames
Codec ID : V_MPEG4/ISO/AVC
Duration : 1 h 21 min
Bit rate : 1 234 kb/s
Width : 1 920 pixels
Height : 800 pixels
Display aspect ratio : 2.40:1
Frame rate mode : Constant
Frame rate : 24.000 FPS
Color space : YUV
Chroma subsampling : 4:2:0
Bit depth : 8 bits
Scan type : Progressive
Bits/(Pixel*Frame) : 0.033
Stream size : 716 MiB (87%)
Language : Chinese
Default : Yes
Forced : No
Color range : Limited
Color primaries : BT.709
Transfer characteristics : BT.709
Matrix coefficients : BT.709

Audio
ID : 2
Format : AAC LC
Format/Info : Advanced Audio Codec Low Complexity
Codec ID : A_AAC-2
Duration : 1 h 21 min
Bit rate : 192 kb/s
Channel(s) : 2 channels
Channel layout : L R
Sampling rate : 44.1 kHz
Frame rate : 43.066 FPS (1024 SPF)
Compression mode : Lossy
Stream size : 110 MiB (13%)
Default : No
Forced : No


部分资源为软字幕,移动端推荐播放器:MxPlayer,nPlayer,infuse ,其他播放器请自行尝试。

部分资源为软字幕,电脑端推荐播放器:PotPlayer,完美解码,KMPLAYER,其他播放器请自行尝试。

下载端推荐纯BT下载软件:qBittorrent,Bitcomet,uTorrent ,其他下载软件请自行尝试。不支持吸血迅雷。



1 个附件 售价 大小 下载 时间

Mr.No.Problem.2022.1080p.WEB-DL.H264.AAC-BATWEB[1LOU.ME].torrent 0 金币 4.56K 462 次 1月前

#1楼
发帖时间:2024-04-18 16:05:36   |   回复数:0
游客组