Asuka601
隐世仙人♂

[2019] [其它] [惊悚] [WEB-4K] 夺命隧道[国语配音/中文字幕].Tunnelen.2019.2160p.WEB-DL.H265.HDR.DDP5.1.2Audio-DreamHD 7.32GB

-->

完整标题:夺命隧道[国语配音/中文字幕].Tunnelen.2019.2160p.WEB-DL.H265.HDR.DDP5.1.2Audio-DreamHD 7.32GB



◎标  题 夺命隧道
◎译  名 隧道浩劫:火海求生(港) / 隧道逃生 / The Tunnel
◎片  名 Tunnelen
◎年  代 2019
◎产  地 挪威
◎类  别 惊悚 / 灾难
◎语  言 挪威语
◎上映日期 2019-12-25(挪威)
◎IMDb评分 6/10 (5834人评价)
◎IMDb链接 https://www.imdb.com/title/tt9049042/
◎豆瓣评分 5.9/10 (1221人评价)
◎豆瓣链接 https://movie.douban.com/subject/30363710/
◎片  长 105分钟
◎导  演 帕尔·奥耶 Pål Øie
◎编  剧 克耶尔斯蒂·海伦·拉斯穆森 Kjersti Helen Rasmussen
◎演  员 托尔比约恩·哈尔 Thorbjørn Harr
      伊尔瓦·伯杜德 Ylva Fuglerud
      丽莎·卡勒希德 Lisa Carlehed
      米克尔·布拉特·西尔塞特 Mikkel Bratt Silset
      彼得·福尔德 Peter Førde
      丹尼尔·亚历山大·斯卡达尔 Daniel Alexander Skadal
      珀·埃吉尔·埃斯克 Per Egil Aske
      简·冈纳·勒伊斯 Jan Gunnar Røise
      英维尔·霍尔特·拜格德内斯 Ingvild Holthe Bygdnes
      伊戈尔·内克默 Igor Necemer
      西莉耶·布雷维克 Silje Breivik
      埃尔达·斯卡 Eldar Skar
      凯瑞·豪根·西德尼斯 Kyrre Haugen Sydness
      亨利克·霍尔姆 Henrik Holm

◎简  介
    挪威是个拥有大量公路隧道的国家,但是由于隧道建设时缺少应急规划和救灾避难设施,隧道内的火灾往往是致命的。   斯坦好不容易在圣诞节前一天请了假,打算与女儿和女伴一起渡个假,但伊莉斯却因为满心都是去世的母亲,跟斯坦大吵一架,坐上了去奥斯陆的长途大巴。可就在伊莉斯坐的大巴驶入隧道后不久,大巴前面行驶的油罐车出事故导致隧道里的交通都堵塞住了,恶劣的天气让所有救援都不能及时赶到。而后油罐车还短路爆炸了,滚烫的浓烟瞬间填满了隧道。伊莉斯带着大家自救,到隧道里的检修小屋里避难。斯坦开车冲进了浓烟去寻找自己的女儿。隧道里遍布大量窒息的死者,伊莉斯他们避难的小屋里也逐渐被烟雾填满,终于,斯坦出现并救了伊莉斯和几位幸存者。返程路上,救援中心通知斯坦有两位小女孩就困在他们附近,斯坦让女儿和幸存者先走,自己独自去寻找两个姑娘。小姑娘找到了,但把所有呼吸装备都给了别人的斯坦却撑不住失去了意识,恍惚中他发现女儿伊莉斯回来了,她帮斯坦通知了队友和女伴,所有人一起从浓烟和塌方中救出了快要窒息的斯坦。   最终,虽然这场事故造成了极大的伤亡,但在救援队员拼死的行动下,还是挽救了一些宝贵的生命,而斯坦新组建的家庭也因这次生死经历而凝聚在了一起。

点击图片可查看大图

软字幕无法在截图上展现,HDR版本/杜比视界版本截图会出现颜色异常,请使用支持的设备播放!

##### MediaInfo ######
General
Unique ID : 308744862242315062279652598374441694054 (0xE84618F82C46519D61022386D5543366)
Complete name : Tunnelen.2019.2160p.WEB-DL.H265.HDR.DDP5.1.2Audio-DreamHD.mkv
Duration : 1 h 44 min
Overall bit rate : 10.1 Mb/s

Video
ID : 1
Format : HEVC
Format/Info : High Efficiency Video Coding
Format profile : Main 10@L5@Main
HDR format : SMPTE ST 2086, HDR10 compatible
Codec ID : V_MPEGH/ISO/HEVC
Duration : 1 h 44 min
Bit rate : 9 439 kb/s
Width : 3 840 pixels
Height : 1 608 pixels
Display aspect ratio : 2.40:1
Frame rate mode : Constant
Frame rate : 24.000 FPS
Color space : YUV
Chroma subsampling : 4:2:0
Bit depth : 10 bits
Bits/(Pixel*Frame) : 0.064
Stream size : 6.86 GiB (94%)
Default : Yes
Forced : No
Color range : Limited
Color primaries : BT.2020
Transfer characteristics : PQ
Matrix coefficients : BT.2020 non-constant
Mastering display color primaries : R: x=0.708000 y=0.292000, G: x=0.170000 y=0.797000, B: x=0.130000 y=0.046000, White point: x=0.312700 y=0.329000
Mastering display luminance : min: 0.0001 cd/m2, max: 1000 cd/m2
Maximum Content Light Level : 674 cd/m2
Maximum Frame-Average Light Level : 48 cd/m2

Audio #1
ID : 2
Format : E-AC-3
Format/Info : Enhanced AC-3
Commercial name : Dolby Digital Plus
Codec ID : A_EAC3
Duration : 1 h 44 min
Bit rate mode : Constant
Bit rate : 256 kb/s
Channel(s) : 6 channels
Channel layout : L R C LFE Ls Rs
Sampling rate : 48.0 kHz
Frame rate : 31.250 FPS (1536 SPF)
Compression mode : Lossy
Stream size : 190 MiB (3%)
Title : [DDP5.1]
Language : Norwegian
Service kind : Complete Main
Default : Yes
Forced : No

Audio #2
ID : 3
Format : AAC LC
Format/Info : Advanced Audio Codec Low Complexity
Codec ID : A_AAC-2
Duration : 1 h 44 min
Bit rate : 192 kb/s
Channel(s) : 2 channels
Channel layout : L R
Sampling rate : 44.1 kHz
Frame rate : 43.066 FPS (1024 SPF)
Compression mode : Lossy
Stream size : 141 MiB (2%)
Title : [AAC2.0]
Language : Norwegian
Default : No
Forced : No

Audio #3
ID : 4
Format : AAC LC
Format/Info : Advanced Audio Codec Low Complexity
Codec ID : A_AAC-2
Duration : 1 h 44 min
Bit rate : 192 kb/s
Channel(s) : 2 channels
Channel layout : L R
Sampling rate : 44.1 kHz
Frame rate : 43.066 FPS (1024 SPF)
Compression mode : Lossy
Stream size : 141 MiB (2%)
Title : Mandarin [AAC2.0]
Language : Chinese
Default : No
Forced : No


部分资源为软字幕,移动端推荐播放器:MxPlayer,nPlayer,infuse ,其他播放器请自行尝试。

部分资源为软字幕,电脑端推荐播放器:PotPlayer,完美解码,KMPLAYER,其他播放器请自行尝试。

下载端推荐纯BT下载软件:qBittorrent,Bitcomet,uTorrent ,其他下载软件请自行尝试。不支持吸血迅雷。



1 个附件 售价 大小 下载 时间

Tunnelen.2019.2160p.WEB-DL.H265.HDR.DDP5.1.2Audio-DreamHD[1LOU.ME].torrent 0 金币 20.87K 567 次 1月前

#1楼
发帖时间:2024-04-18 16:04:39   |   回复数:0
游客组