Asuka601
隐世仙人♂

[2022] [大陆] [惊悚] [WEB-4K] 深海蛇难[杜比视界版本][国语配音/中文字幕].Deep.Sea.Mutant.Snake.2022.2160p.WEB-DL.H265.DV.DDP2.0-D

-->

完整标题:深海蛇难[杜比视界版本][国语配音/中文字幕].Deep.Sea.Mutant.Snake.2022.2160p.WEB-DL.H265.DV.DDP2.0-DreamHD 7.33GB



◎标  题 深海蛇难
◎译  名 Deep Sea Snake Disaster
◎年  代 2022
◎产  地 中国大陆
◎类  别 惊悚 / 奇幻 / 灾难
◎语  言 汉语普通话
◎上映日期 2022-08-27(中国大陆网络)
◎IMDb链接 https://www.imdb.com/title//
◎豆瓣链接 https://movie.douban.com/subject/35496693/
◎片  长 80分钟
◎演  员 赵毅新 Yixin Zhao
      李佳怡 Jiayi Li
      邱士鉴 Shijian Qiu
      姜彦希 Yanxi Jiang
      李子雄 Waise Lee
      洛桑群培 Lopsang
      埃米尔 Amro

◎简  介
    故事讲述了秦宇的未婚妻在调查卡斯集团时离奇死亡,为了在法庭上成功指证这个作恶多端的生物集团,秦宇跟踪掌握集团犯罪证据的杰森上了邮轮,却突遭变异蛇群攻击,误入卡斯集团进行非法实验的岛屿,岛屿奇怪的生态环境与巨蛇的再次来袭,令秦宇等人身陷绝命危机,而后众人齐心协力相互配合脱离险境,并圆满将卡斯集团罪行公布于众的故事。

点击图片可查看大图

软字幕无法在截图上展现,HDR版本/杜比视界版本截图会出现颜色异常,请使用支持的设备播放!

##### MediaInfo ######
General
Unique ID : 305264547579345011341030214665700795185 (0xE5A7D0355D7D77CF6B0422C80A2E6331)
Complete name : Deep.Sea.Mutant.Snake.2022.2160p.WEB-DL.H265.DV.DDP2.0-DreamHD.mkv
Duration : 1 h 20 min
Overall bit rate : 13.1 Mb/s

Video
ID : 1
Format : HEVC
Format/Info : High Efficiency Video Coding
Format profile : Main 10@L5@Main
HDR format : Dolby Vision, Version 1.0, dvhe.05.06, BL+RPU
Codec ID : V_MPEGH/ISO/HEVC
Duration : 1 h 20 min
Bit rate : 12.5 Mb/s
Width : 3 840 pixels
Height : 1 634 pixels
Display aspect ratio : 2.35:1
Frame rate mode : Constant
Frame rate : 24.000 FPS
Color space : YUV
Chroma subsampling : 4:2:0
Bit depth : 10 bits
Bits/(Pixel*Frame) : 0.083
Stream size : 7.04 GiB (96%)
Language : Chinese
Default : Yes
Forced : No
Color range : Full

Audio #1
ID : 2
Format : E-AC-3
Format/Info : Enhanced AC-3
Commercial name : Dolby Digital Plus
Codec ID : A_EAC3
Duration : 1 h 20 min
Bit rate mode : Constant
Bit rate : 256 kb/s
Channel(s) : 2 channels
Channel layout : L R
Sampling rate : 48.0 kHz
Frame rate : 31.250 FPS (1536 SPF)
Bit depth : 32 bits
Compression mode : Lossy
Stream size : 147 MiB (2%)
Title : Mandarin [DDP2.0]
Language : Chinese
Service kind : Complete Main
Default : Yes
Forced : No

Audio #2
ID : 3
Format : AAC LC
Format/Info : Advanced Audio Codec Low Complexity
Codec ID : A_AAC-2
Duration : 1 h 20 min
Bit rate : 253 kb/s
Channel(s) : 2 channels
Channel layout : L R
Sampling rate : 48.0 kHz
Frame rate : 46.875 FPS (1024 SPF)
Compression mode : Lossy
Stream size : 146 MiB (2%)
Title : Mandarin [AAC2.0]
Language : Chinese
Default : No
Forced : No


部分资源为软字幕,移动端推荐播放器:MxPlayer,nPlayer,infuse ,其他播放器请自行尝试。

部分资源为软字幕,电脑端推荐播放器:PotPlayer,完美解码,KMPLAYER,其他播放器请自行尝试。



1 个附件 售价 大小 下载 时间

Deep.Sea.Mutant.Snake.2022.2160p.WEB-DL.H265.DV.DDP2.0-DreamHD[1LOU.ME].torrent 0 金币 21.45K 497 次 1月前

#1楼
发帖时间:2024-03-01 08:19:15   |   回复数:0
游客组