Asuka601
隐世仙人♂

[2024] [大陆] [动作] [WEB-4K] 挡马夺刀[国语配音/中文字幕].Blocking.The.Horse.2024.2160p.WEB-DL.H265.HDR.DDP5.1-DreamHD 7.4

-->

完整标题:挡马夺刀[国语配音/中文字幕].Blocking.The.Horse.2024.2160p.WEB-DL.H265.HDR.DDP5.1-DreamHD 7.41GB



◎标  题 挡马夺刀
◎译  名 挡马转三关 / 挡马
◎年  代 2024
◎产  地 中国大陆
◎类  别 动作 / 武侠 / 古装
◎语  言 汉语普通话
◎上映日期 2024-01-25(中国大陆网络)
◎IMDb链接 https://www.imdb.com/title//
◎豆瓣链接 https://movie.douban.com/subject/36341509/
◎导  演 丰小俊 Xiaojun Feng
◎演  员 松天硕 Tianshuo Song
      张新童 Xintong Zhang
      张凯 Kai Zhang
      吴樾 Yue Wu
      喻亢 Kang Yu
      尤宪超 Xianchao You
      刘欣蕾 Xinlei Liu
      王岗岗 Ganggang Wang
      朱剑峰 Jianfeng Zhu
      谭凯 Kai Tan

◎简  介
    影片取材于京剧名段《挡马》,讲述了杨业(吴樾 饰)战死幽州后,皇上御赐给杨家的九环金锋定宋宝刀落入辽邦,杨八姐(张新童 饰)与杨九妹(刘欣蕾 饰)悲愤之下前往辽国夺回宝刀,返程途中遇见流落异乡的宋将焦光普(松天硕 饰),双方不打不相识,后携手护送宝刀返回故土的故事。

点击图片可查看大图

软字幕无法在截图上展现,HDR版本/杜比视界版本截图会出现颜色异常,请使用支持的设备播放!

##### MediaInfo ######
General
Unique ID : 146322912891804940718377197743629979504 (0x6E14C4984B62855CA7154C47791CCF70)
Complete name : Blocking.The.Horse.2024.2160p.WEB-DL.H265.HDR.DDP5.1-DreamHD.mkv
Duration : 1 h 34 min
Overall bit rate : 11.2 Mb/s

Video
ID : 1
Format : HEVC
Format/Info : High Efficiency Video Coding
Format profile : Main 10@L5@Main
HDR format : SMPTE ST 2086, HDR10 compatible
Codec ID : V_MPEGH/ISO/HEVC
Duration : 1 h 34 min
Bit rate : 10.7 Mb/s
Width : 3 840 pixels
Height : 1 600 pixels
Display aspect ratio : 2.40:1
Frame rate mode : Constant
Frame rate : 24.000 FPS
Color space : YUV
Chroma subsampling : 4:2:0
Bit depth : 10 bits
Bits/(Pixel*Frame) : 0.073
Stream size : 7.11 GiB (96%)
Default : Yes
Forced : No
Color range : Limited
Color primaries : BT.2020
Transfer characteristics : PQ
Matrix coefficients : BT.2020 non-constant
Mastering display color primaries : R: x=0.708000 y=0.292000, G: x=0.170000 y=0.797000, B: x=0.130000 y=0.046000, White point: x=0.312700 y=0.329000
Mastering display luminance : min: 0.0001 cd/m2, max: 1000 cd/m2
Maximum Content Light Level : 717 cd/m2
Maximum Frame-Average Light Level : 94 cd/m2

Audio #1
ID : 2
Format : E-AC-3
Format/Info : Enhanced AC-3
Commercial name : Dolby Digital Plus
Codec ID : A_EAC3
Duration : 1 h 34 min
Bit rate mode : Constant
Bit rate : 256 kb/s
Channel(s) : 6 channels
Channel layout : L R C LFE Ls Rs
Sampling rate : 48.0 kHz
Frame rate : 31.250 FPS (1536 SPF)
Compression mode : Lossy
Stream size : 173 MiB (2%)
Title : Mandarin [DDP5.1]
Language : Chinese
Service kind : Complete Main
Default : Yes
Forced : No

Audio #2
ID : 3
Format : AAC LC
Format/Info : Advanced Audio Codec Low Complexity
Codec ID : A_AAC-2
Duration : 1 h 34 min
Bit rate : 192 kb/s
Channel(s) : 2 channels
Channel layout : L R
Sampling rate : 44.1 kHz
Frame rate : 43.066 FPS (1024 SPF)
Compression mode : Lossy
Stream size : 129 MiB (2%)
Title : Mandarin [AAC2.0]
Language : Chinese
Default : No
Forced : No


部分资源为软字幕,移动端推荐播放器:MxPlayer,nPlayer,infuse ,其他播放器请自行尝试。

部分资源为软字幕,电脑端推荐播放器:PotPlayer,完美解码,KMPLAYER,其他播放器请自行尝试。



1 个附件 售价 大小 下载 时间

Blocking.The.Horse.2024.2160p.WEB-DL.H265.HDR.DDP5.1-DreamHD[1LOU.ME].torrent 0 金币 21.62K 686 次 1月前

#1楼
发帖时间:2024-03-01 08:15:58   |   回复数:0
游客组