Asuka601
隐世仙人♂

[更 早] [欧美] [喜剧] [BD-1080P] 愤怒管理[简繁英字幕].Anger.Management.2003.BluRay.1080p.TrueHD.5.1.x264-DreamHD 12.02GB

-->

完整标题:愤怒管理[简繁英字幕].Anger.Management.2003.BluRay.1080p.TrueHD.5.1.x264-DreamHD 12.02GB



◎标  题 愤怒管理
◎译  名 以怒制怒 / 抓狂管训班 / 我爱发脾四 / 气味相投 / 以怒攻怒 / 愤怒控制班
◎片  名 Anger Management
◎年  代 2003
◎产  地 美国
◎类  别 喜剧
◎语  言 英语
◎上映日期 2003-04-11
◎IMDb评分 6.2/10 (219671人评价)
◎IMDb链接 https://www.imdb.com/title/tt0305224/
◎豆瓣评分 6.7/10 (8153人评价)
◎豆瓣链接 https://movie.douban.com/subject/1305430/
◎片  长 106 分钟
◎导  演 彼得·西格尔 Peter Segal
◎演  员 亚当·桑德勒 Adam Sandler
      杰克·尼科尔森 Jack Nicholson
      玛丽莎·托梅 Marisa Tomei
      路易斯·古兹曼 Luis Guzmán
      詹纽瑞·琼斯 January Jones
      伍迪·哈里森 Woody Harrelson
      肖布朗 Sho Brown
      Andrew Forsyth
      Zack Abramowitz Zack Abramowitz
      Luis Garcia
      Matthew Honovic
      Halley Eveland
      Aaron Fiore
      布拉德·戴维斯 Brad Davis
      Alan Embree Alan Embree
      约翰·麦肯罗 John McEnroe
      艾伦·卡瓦特 Allen Covert
      Bobby Knight Bobby Knight
      Judith Nathan Judith Nathan
      德瑞克·基特 Derek Jeter
      约翰·特托罗 John Turturro
      托尼·吉纳罗 Tony Genaro
      Robert Merrill Robert Merrill
      科迪艾伦斯 Cody Arens
      Roger Clemens Roger Clemens
      Lindsay Weber Lindsay Weber
      Heather Charles Heather Charles
      Paul Renteria Paul Renteria
      Craig Parten Craig Parten
      Brent Tarnol Brent Tarnol
      Jeff Morris Jeff Morris
      柯特·富勒 Kurt Fuller
      海瑟·格拉汉姆 Heather Graham
      凯文·尼龙 Kevin Nealon
      乔·霍华德 Joe Howard
      阿诺德·庄 Arnold Chon
      Sean Welch Sean Welch
      约翰·C·赖利 John C. Reilly
      西德尼·甘尼斯 Sidney Ganis
      哈利·戴恩·斯坦通 Harry Dean Stanton
      登·戴芒 Don Diamont
      Curt Foy Curt Foy
      Melissa Mitchell Melissa Mitchell
      Wyatt Ben Bernstein Wyatt Ben Bernstein
      Keith E. Lane Keith E. Lane
      Silas Gaither Silas Gaither
      南茜·卡瑞尔 Nancy Carell
      林恩·瑟格本 Lynne Thigpen
      Mitchell Speert Mitchell Speert
      乔纳森·奥塞尔 Jonathan Osser
      吉娜·盖莱果 Gina Gallego
      邦尼·赫尔曼 Bonnie Hellman
      康拉德·古德 Conrad Goode
      史蒂芬·邓纳姆 Stephen Dunham
      Salvatore Cavaliere Salvatore Cavaliere
      Matt Clifford Matt Clifford
      洛里·海瑞 Lori Heuring
      Clint Black Clint Black
      克里丝塔·艾伦 Krista Allen

◎简  介
    戴夫(亚当·桑德勒 Adam Sandler 饰)有着温文尔雅的外表,和漂亮的女朋友琳达(玛丽莎·托梅 Marisa Tomei 饰)。但在一次飞行旅行中情绪失控,,被遣送去进行“情绪管理”训练。课程的负责人精神病医生巴迪(杰克·尼科尔森 Jack Nicholson 饰)本身就有点疯癫。一手创建了“情绪管理”理论和治疗中心,相关书畅销不衰。中心的病人个个脾气古怪,巴迪不断的逼迫戴夫去做一些近乎发疯的事情,让戴夫感到即使不疯也要快要被逼疯了。而法庭认为戴夫的进展过于缓慢要送他去监狱。被逼入绝境的戴夫,只好忍受巴迪的刺激疗法,戴夫感到自己的极限就要到来,他在退缩封闭自己的内心,还是勇敢面对完整的自己两个选择中,犹豫了……   到底巴迪医生与病人戴夫的磨合调整,会是柳暗花明,还是陷入无尽的内心黑洞当中呢?

点击图片可查看大图

软字幕无法在截图上展现,HDR版本/杜比视界版本截图会出现颜色异常,请使用支持的设备播放!

##### MediaInfo ######
General
Unique ID : 17646554230305903579743212268055867268 (0xD469A4BE80AA8BC77A31EF65CBAAF84)
Complete name : Anger.Management.2003.BluRay.1080p.TrueHD.5.1.x264-DreamHD.mkv
Duration : 1 h 45 min
Overall bit rate mode : Variable
Overall bit rate : 16.4 Mb/s

Video
ID : 1
Format : AVC
Format/Info : Advanced Video Codec
Format profile : [email protected]
Format settings : CABAC / 4 Ref Frames
Format settings, CABAC : Yes
Format settings, Reference frames : 4 frames
Codec ID : V_MPEG4/ISO/AVC
Duration : 1 h 45 min
Bit rate : 14.6 Mb/s
Width : 1 920 pixels
Height : 800 pixels
Display aspect ratio : 2.40:1
Frame rate mode : Constant
Frame rate : 23.976 (24000/1001) FPS
Color space : YUV
Chroma subsampling : 4:2:0
Bit depth : 8 bits
Scan type : Progressive
Bits/(Pixel*Frame) : 0.396
Stream size : 10.7 GiB (89%)
Writing library : x264 core 157 r2867+150 7e91e0e t_mod_Custom_2 [8-bit@all X86_64]
Encoding settings : cabac=1 / ref=4 / deblock=1:-3:-3 / analyse=0x3:0x133 / me=umh / subme=11 / psy=1 / fade_compensate=0.00 / psy_rd=0.95:0.10 / mixed_ref=1 / me_range=48 / chroma_me=1 / trellis=2 / 8x8dct=1 / cqm=0 / deadzone=21,11 / fast_pskip=0 / chroma_qp_offset=-4 / threads=25 / lookahead_threads=4 / sliced_threads=0 / nr=0 / decimate=1 / interlaced=0 / bluray_compat=0 / constrained_intra=0 / fgo=0 / bframes=8 / b_pyramid=2 / b_adapt=2 / b_bias=0 / direct=3 / weightb=1 / open_gop=0 / weightp=2 / keyint=250 / keyint_min=23 / scenecut=40 / intra_refresh=0 / rc_lookahead=60 / rc=crf / mbtree=0 / crf=21.5000 / qcomp=0.70 / qpmin=0:0:0 / qpmax=69:69:69 / qpstep=4 / vbv_maxrate=35000 / vbv_bufsize=35000 / crf_max=0.0 / nal_hrd=none / filler=0 / ip_ratio=1.40 / pb_ratio=1.30 / aq=3:1.00 / aq-sensitivity=10.00 / aq-factor=1.00:1.00:1.00 / aq2=0 / aq3=2:[0.50:0.50]:[0.50:0.50]:[0.50:0.50]:[0.50:0.50] / aq3-sensitivity=10.00 / aq3-factor=[1.00:1.00]:[1.00:1.00]:[1.00:1.00] / aq3-boundary=192:64:24
Default : Yes
Forced : No

Audio
ID : 2
Format : MLP FBA
Format/Info : Meridian Lossless Packing FBA
Commercial name : Dolby TrueHD
Codec ID : A_TRUEHD
Duration : 1 h 45 min
Bit rate mode : Variable
Bit rate : 1 650 kb/s
Maximum bit rate : 3 069 kb/s
Channel(s) : 6 channels
Channel layout : L R C LFE Ls Rs
Sampling rate : 48.0 kHz
Frame rate : 1 200.000 FPS (40 SPF)
Compression mode : Lossless
Stream size : 1.21 GiB (10%)
Language : English
Default : Yes
Forced : No

Text #1
ID : 3
Format : PGS
Muxing mode : zlib
Codec ID : S_HDMV/PGS
Codec ID/Info : Picture based subtitle format used on BDs/HD-DVDs
Duration : 1 h 36 min
Bit rate : 45.6 kb/s
Frame rate : 0.523 FPS
Count of elements : 3010
Stream size : 31.3 MiB (0%)
Language : English
Default : Yes
Forced : No

Text #2
ID : 4
Format : PGS
Muxing mode : zlib
Codec ID : S_HDMV/PGS
Codec ID/Info : Picture based subtitle format used on BDs/HD-DVDs
Duration : 1 h 43 min
Bit rate : 31.7 kb/s
Frame rate : 0.472 FPS
Count of elements : 2932
Stream size : 23.5 MiB (0%)
Title : CHT
Language : Chinese
Default : Yes
Forced : No

Text #3
ID : 5
Format : PGS
Muxing mode : zlib
Codec ID : S_HDMV/PGS
Codec ID/Info : Picture based subtitle format used on BDs/HD-DVDs
Duration : 1 h 43 min
Bit rate : 32.0 kb/s
Frame rate : 0.472 FPS
Count of elements : 2930
Stream size : 23.7 MiB (0%)
Title : CHS
Language : Chinese
Default : Yes
Forced : No

Text #4
ID : 6
Format : PGS
Muxing mode : zlib
Codec ID : S_HDMV/PGS
Codec ID/Info : Picture based subtitle format used on BDs/HD-DVDs
Duration : 1 h 43 min
Bit rate : 32.9 kb/s
Frame rate : 0.472 FPS
Count of elements : 2930
Stream size : 24.3 MiB (0%)
Title : CHT
Language : Chinese
Default : Yes
Forced : No

Menu
00:00:00.000 : en:第 01 章
00:05:04.054 : en:第 02 章
00:09:59.516 : en:第 03 章
00:16:54.722 : en:第 04 章
00:22:25.719 : en:第 05 章
00:29:28.976 : en:第 06 章
00:36:20.595 : en:第 07 章
00:42:22.039 : en:第 08 章
00:47:57.833 : en:第 09 章
00:52:36.445 : en:第 10 章
00:58:05.440 : en:第 11 章
01:04:42.587 : en:第 12 章
01:16:01.056 : en:第 13 章
01:20:44.798 : en:第 14 章
01:27:36.376 : en:第 15 章
01:35:07.076 : en:第 16 章


部分资源为软字幕,移动端推荐播放器:MxPlayer,nPlayer,infuse ,其他播放器请自行尝试。

部分资源为软字幕,电脑端推荐播放器:PotPlayer,完美解码,KMPLAYER,其他播放器请自行尝试。



1 个附件 售价 大小 下载 时间

Anger.Management.2003.BluRay.1080p.TrueHD.5.1.x264-DreamHD[1LOU.ME].torrent 0 金币 33.22K 700 次 1月前

#1楼
发帖时间:2024-02-29 23:02:46   |   回复数:0
游客组