Asuka601
隐世仙人♂

[更 早] [其它] [剧情] [BD-1080P] 疑云密布[国英多音轨/中文字幕].Under.Suspicion.2000.BluRay.1080p.AAC.2Audio.x264-DreamHD 3.40G

-->

完整标题:疑云密布[国英多音轨/中文字幕].Under.Suspicion.2000.BluRay.1080p.AAC.2Audio.x264-DreamHD 3.40GB



◎标  题 疑云密布
◎译  名 惊爆2000 / 悬疑对战
◎片  名 Under Suspicion
◎年  代 2000
◎产  地 法国 / 美国
◎类  别 剧情 / 惊悚 / 犯罪
◎语  言 英语 / 意大利语 / 西班牙语
◎上映日期 2000-06-02
◎IMDb评分 6.4/10 (26523人评价)
◎IMDb链接 https://www.imdb.com/title/tt0164212/
◎豆瓣评分 7.2/10 (3290人评价)
◎豆瓣链接 https://movie.douban.com/subject/1300949/
◎片  长 110 分钟 / USA: 111 分钟(TV)
◎导  演 斯蒂芬·霍普金斯 Stephen Hopkins
◎编  剧 克洛德·米勒 Claude Miller
      让·埃尔曼 Jean Herman
      米歇尔·奥迪亚 Michel Audiard
◎演  员 吉恩·哈克曼 Gene Hackman
      摩根·弗里曼 Morgan Freeman
      莫妮卡·贝鲁奇 Monica Bellucci
      路易莎·莱斯金 Luisa Leschin
      Rafi Escudero Rafi Escudero
      Eddie Santiago Ortiz Eddie Santiago Ortiz
      莎莉·埃斯顿达 Sahyly Yamile
      托马斯·简 Thomas Jane
      Norma Maldonado Norma Maldonado
      尼迪亚·卡拉罗 Nydia Caro
      玛莉索·卡莱罗 Marisol Calero
      杰奎琳·杜普雷 Jacqueline Duprey
      迈克·戈麦斯 Mike Gomez
      凡妮莎·马尔克斯 Vanessa Marquez
      Ramon Saldana Ramon Saldana
      Miguel Ángel Suárez Miguel Ángel Suárez

◎简  介
    由于涉嫌强暴并杀死未成年女孩,亨瑞(吉恩·哈克曼 Gene Hackman 饰)被维克多警长(摩根·弗里曼 Morgan Freeman 饰)拘留了,虽然亨瑞最初的身份是发现了小女孩尸体的报案者,但他严重前后不符的证词无疑为罪恶天平向他的倾斜增加了一枚砝码。   通过亨瑞的妻子沙特尔(莫妮卡·贝鲁奇 Monica Bellucci 饰)的证词,维克多得知他们两人的夫妻关系早已名存实亡,而造成这一局面的罪魁祸首,竟然是亨特和她年幼的侄女之间说不清道不明的暧昧关系。在搜查了亨瑞的房子后,警探欧文斯(托马斯·简 Thomas Jane 饰)在暗房里找到了被害女孩的照片,案件的破解至此已经万事俱备,只欠亨瑞最后的自白了。

点击图片可查看大图

软字幕无法在截图上展现,HDR版本/杜比视界版本截图会出现颜色异常,请使用支持的设备播放!

##### MediaInfo ######
General
Complete name : Under.Suspicion.2000.BluRay.1080p.AAC.2Audio.x264-DreamHD.mp4
Duration : 1 h 50 min
Overall bit rate mode : Variable
Overall bit rate : 4 391 kb/s

Video
ID : 1
Format : AVC
Format/Info : Advanced Video Codec
Format profile : [email protected]
Format settings : CABAC / 4 Ref Frames
Format settings, CABAC : Yes
Format settings, Reference frames : 4 frames
Codec ID : avc1
Codec ID/Info : Advanced Video Coding
Duration : 1 h 50 min
Bit rate : 4 000 kb/s
Maximum bit rate : 13.9 Mb/s
Width : 1 920 pixels
Height : 1 080 pixels
Display aspect ratio : 16:9
Frame rate mode : Constant
Frame rate : 23.976 (24000/1001) FPS
Color space : YUV
Chroma subsampling : 4:2:0
Bit depth : 8 bits
Scan type : Progressive
Bits/(Pixel*Frame) : 0.080
Stream size : 3.10 GiB (91%)
Writing library : x264 core 157 r2867+150 7e91e0e t_mod_Custom_2 [8-bit@all X86_64]
Encoding settings : cabac=1 / ref=4 / deblock=1:-3:-3 / analyse=0x1:0x131 / me=umh / subme=10 / psy=1 / fade_compensate=0.00 / psy_rd=1.00:0.15 / mixed_ref=1 / me_range=64 / chroma_me=1 / trellis=2 / 8x8dct=0 / cqm=0 / deadzone=21,11 / fast_pskip=0 / chroma_qp_offset=-3 / threads=30 / lookahead_threads=5 / sliced_threads=0 / nr=0 / decimate=1 / interlaced=0 / bluray_compat=0 / constrained_intra=0 / fgo=0 / bframes=8 / b_pyramid=2 / b_adapt=2 / b_bias=0 / direct=3 / weightb=1 / open_gop=0 / weightp=2 / keyint=300 / keyint_min=24 / scenecut=40 / intra_refresh=0 / rc_lookahead=60 / rc=2pass / mbtree=1 / bitrate=4000 / ratetol=1.0 / qcomp=0.60 / qpmin=0:0:0 / qpmax=69:69:69 / qpstep=4 / cplxblur=20.0 / qblur=0.5 / ip_ratio=1.40 / aq=2:1.00 / aq-sensitivity=10.00 / aq-factor=1.00:1.00:1.00 / aq2=0 / aq3=0
Encoded date : UTC 2024-02-28 07:11:45
Tagged date : UTC 2024-02-28 07:11:52
mdhd_Duration : 6657818
Codec configuration box : avcC

Audio #1
ID : 2
Format : AAC LC
Format/Info : Advanced Audio Codec Low Complexity
Codec ID : mp4a-40-2
Duration : 1 h 50 min
Bit rate mode : Variable
Bit rate : 192 kb/s
Maximum bit rate : 223 kb/s
Channel(s) : 2 channels
Channel layout : L R
Sampling rate : 48.0 kHz
Frame rate : 46.875 FPS (1024 SPF)
Compression mode : Lossy
Stream size : 154 MiB (4%)
Language : English
Default : Yes
Alternate group : 1
Encoded date : UTC 2024-02-28 07:11:49
Tagged date : UTC 2024-02-28 07:11:52

Audio #2
ID : 3
Format : AAC LC
Format/Info : Advanced Audio Codec Low Complexity
Codec ID : mp4a-40-2
Duration : 1 h 50 min
Bit rate mode : Variable
Bit rate : 192 kb/s
Maximum bit rate : 232 kb/s
Channel(s) : 2 channels
Channel layout : L R
Sampling rate : 48.0 kHz
Frame rate : 46.875 FPS (1024 SPF)
Compression mode : Lossy
Stream size : 155 MiB (4%)
Language : Chinese
Default : Yes
Alternate group : 1
Encoded date : UTC 2024-02-28 07:11:51
Tagged date : UTC 2024-02-28 07:11:52

Menu


部分资源为软字幕,移动端推荐播放器:MxPlayer,nPlayer,infuse ,其他播放器请自行尝试。

部分资源为软字幕,电脑端推荐播放器:PotPlayer,完美解码,KMPLAYER,其他播放器请自行尝试。



2 个附件 售价 大小 下载 时间

Under.Suspicion.2000.BluRay.1080p.AAC.2Audio.x264-DreamHD[1LOU.ME].torrent 0 金币 11.67K 1323 次 1月前

Under.Suspicion.2000.BluRay.1080p.AAC.2Audio.x264-DreamHD[1LOU.ME].torrent 0 金币 11.67K 581 次 1月前

#1楼
发帖时间:2024-02-29 12:46:01   |   回复数:0
游客组