Asuka601
隐世仙人♂

[2022] [欧美] [剧情] [BD-4K] 达荷美女战士[国语配音/中文字幕].The.Woman.King.2022.UHD.BluRay.REMUX.2160p.HEVC.Atmos.TrueHD7.

-->

完整标题:达荷美女战士[国语配音/中文字幕].The.Woman.King.2022.UHD.BluRay.REMUX.2160p.HEVC.Atmos.TrueHD7.1-DreamHD 55.14GB



◎标  题 达荷美女战士
◎译  名 女战不败(港) / 女王 / 达荷美女王
◎片  名 The Woman King
◎年  代 2022
◎产  地 美国 / 加拿大
◎类  别 剧情 / 动作 / 历史
◎语  言 英语
◎上映日期 2023-04-14(中国大陆) / 2022-09-10(多伦多电影节) / 2022-09-16(美国)
◎IMDb评分 6.9/10 (69743人评价)
◎IMDb链接 https://www.imdb.com/title/tt8093700/
◎豆瓣评分 5.8/10 (3067人评价)
◎豆瓣链接 https://movie.douban.com/subject/30159288/
◎片  长 135分钟
◎导  演 吉娜·普林斯-拜斯伍德 Gina Prince-Bythewood
◎编  剧 达娜·史蒂文斯 Dana Stevens
      玛丽亚·贝罗 Maria Bello
◎演  员 维奥拉·戴维斯 Viola Davis
      图索·姆贝杜 Thuso Mbedu
      拉什纳·林奇 Lashana Lynch
      希拉·阿蒂姆 Sheila Atim
      约翰·博耶加 John Boyega
      赫洛·费因斯-提芬 Hero Fiennes Tiffin
      吉米·奥杜科亚 Jimmy Odukoya
      玛萨利·班度萨 Masali Baduza
      杰米·劳森 Jayme Lawson
      艾德丽安·沃伦 Adrienne Warren
      奇奥玛·乌梅拉 Chioma Antoinette Umeala
      西亚姆坦达·马卡坎 Siyamthanda Makakane
      谢娜·韦斯特 Shaina West
      安格丽克·基乔 Angélique Kidjo
      丹尼尔·哈德比 Daniel Hadebe
      佐齐比妮·通齐 Zozibini Tunzi
      邦戈·姆布图马 Bongo Mbutuma
      乔丹·博尔格 Jordan Bolger

◎简  介
    影片讲述了一支全女子军团奋勇抵御外敌的非凡故事。当外来侵略者虎视眈眈,一支完全由女性组成的军团热血上阵,她们骁勇善战、所向披靡,誓要粉碎侵略者的野心。故事展现了她饰演的纳尼斯卡将军震撼人心的旅程——她训练下一代新兵,并让她们做好准备,不惜一切代价保卫家园……   影片改编自发生在19世纪非洲西海岸的真实历史事件。

##### MediaInfo ######
General
Unique ID : 5574123324349977351109830971194901372 (0x431897F8B19EEE818531B7BB724837C)
Complete name : The.Woman.King.2022.UHD.BluRay.REMUX.2160p.HEVC.Atmos.TrueHD7.1-DreamHD.mkv
Duration : 2 h 14 min
Overall bit rate mode : Variable
Overall bit rate : 58.5 Mb/s

Video
ID : 1
ID in the original source medium : 4113 (0x1011)
Format : HEVC
Format/Info : High Efficiency Video Coding
Format profile : Main [email protected]@High
HDR format : SMPTE ST 2086, HDR10 compatible
Codec ID : V_MPEGH/ISO/HEVC
Duration : 2 h 14 min
Bit rate : 54.2 Mb/s
Width : 3 840 pixels
Height : 2 160 pixels
Display aspect ratio : 16:9
Frame rate mode : Constant
Frame rate : 23.976 (24000/1001) FPS
Color space : YUV
Chroma subsampling : 4:2:0 (Type 2)
Bit depth : 10 bits
Bits/(Pixel*Frame) : 0.272
Stream size : 51.0 GiB (93%)
Default : Yes
Forced : No
Color range : Limited
Color primaries : BT.2020
Transfer characteristics : PQ
Matrix coefficients : BT.2020 non-constant
Mastering display color primaries : BT.2020
Mastering display luminance : min: 0.0001 cd/m2, max: 1000 cd/m2
Maximum Content Light Level : 410 cd/m2
Maximum Frame-Average Light Level : 266 cd/m2
Original source medium : Blu-ray

Audio
ID : 2
ID in the original source medium : 4352 (0x1100)
Format : MLP FBA 16-ch
Format/Info : Meridian Lossless Packing FBA with 16-channel presentation
Commercial name : Dolby TrueHD with Dolby Atmos
Codec ID : A_TRUEHD
Duration : 2 h 14 min
Bit rate mode : Variable
Bit rate : 4 235 kb/s
Maximum bit rate : 6 381 kb/s
Channel(s) : 8 channels
Channel layout : L R C LFE Ls Rs Lb Rb
Sampling rate : 48.0 kHz
Frame rate : 1 200.000 FPS (40 SPF)
Compression mode : Lossless
Stream size : 3.99 GiB (7%)
Language : English
Default : Yes
Forced : No
Original source medium : Blu-ray
Number of dynamic objects : 11
Bed channel count : 1 channel
Bed channel configuration : LFE

Text #1
ID : 3
ID in the original source medium : 4768 (0x12A0)
Format : PGS
Muxing mode : zlib
Codec ID : S_HDMV/PGS
Codec ID/Info : Picture based subtitle format used on BDs/HD-DVDs
Duration : 2 h 12 min
Bit rate : 23.3 kb/s
Frame rate : 0.343 FPS
Count of elements : 2732
Stream size : 22.2 MiB (0%)
Language : English
Default : Yes
Forced : No
Original source medium : Blu-ray

Text #2
ID : 4
ID in the original source medium : 4772 (0x12A4)
Format : PGS
Muxing mode : zlib
Codec ID : S_HDMV/PGS
Codec ID/Info : Picture based subtitle format used on BDs/HD-DVDs
Duration : 2 h 9 min
Bit rate : 14.7 kb/s
Frame rate : 0.296 FPS
Count of elements : 2296
Stream size : 13.6 MiB (0%)
Language : Chinese
Default : Yes
Forced : No
Original source medium : Blu-ray

Text #3
ID : 5
ID in the original source medium : 4773 (0x12A5)
Format : PGS
Muxing mode : zlib
Codec ID : S_HDMV/PGS
Codec ID/Info : Picture based subtitle format used on BDs/HD-DVDs
Duration : 2 h 9 min
Bit rate : 15.0 kb/s
Frame rate : 0.296 FPS
Count of elements : 2296
Stream size : 13.9 MiB (0%)
Language : Chinese
Default : Yes
Forced : No
Original source medium : Blu-ray

Text #4
ID : 6
ID in the original source medium : 4774 (0x12A6)
Format : PGS
Muxing mode : zlib
Codec ID : S_HDMV/PGS
Codec ID/Info : Picture based subtitle format used on BDs/HD-DVDs
Duration : 2 h 9 min
Bit rate : 25.4 kb/s
Frame rate : 0.296 FPS
Count of elements : 2296
Stream size : 23.5 MiB (0%)
Language : Chinese
Default : Yes
Forced : No
Original source medium : Blu-ray

Text #5
ID : 7
ID in the original source medium : 4775 (0x12A7)
Format : PGS
Muxing mode : zlib
Codec ID : S_HDMV/PGS
Codec ID/Info : Picture based subtitle format used on BDs/HD-DVDs
Duration : 2 h 9 min
Bit rate : 25.7 kb/s
Frame rate : 0.296 FPS
Count of elements : 2296
Stream size : 23.8 MiB (0%)
Language : Chinese
Default : Yes
Forced : No
Original source medium : Blu-ray

Menu
00:00:00.000 : en:Chapter 01
00:06:35.603 : en:Chapter 02
00:13:40.110 : en:Chapter 03
00:20:04.995 : en:Chapter 04
00:27:11.963 : en:Chapter 05
00:34:33.404 : en:Chapter 06
00:43:19.763 : en:Chapter 07
00:51:02.309 : en:Chapter 08
00:58:15.825 : en:Chapter 09
01:07:35.259 : en:Chapter 10
01:14:07.067 : en:Chapter 11
01:22:52.175 : en:Chapter 12
01:31:55.426 : en:Chapter 13
01:39:42.267 : en:Chapter 14
01:48:54.319 : en:Chapter 15
01:58:15.254 : en:Chapter 16


部分资源为软字幕,移动端推荐播放器:MxPlayer,nPlayer,infuse ,其他播放器请自行尝试。

部分资源为软字幕,电脑端推荐播放器:PotPlayer,完美解码,KMPLAYER,其他播放器请自行尝试。



1 个附件 售价 大小 下载 时间

The.Woman.King.2022.UHD.BluRay.REMUX.2160p.HEVC.Atmos.TrueHD7.1-DreamHD[1LOU.ME].torrent 0 金币 140.97K 1575 次 1月前

#1楼
发帖时间:2024-02-29 12:43:21   |   回复数:2
feung18
武林盟主
感謝樓主辛苦 !
1月前 #2楼
wybt
一派掌门
不是历史,生造吗。感谢。
1月前 #3楼
游客组