Asuka601
隐世仙人♂

[2013] [欧美] [剧情] [BD-4K] 华尔街之狼[HDR/杜比视界双版本][国英多音轨/中文字幕/特效字幕].2013.V3.UHD.BluRay.REMUX.2160p.HEVC.DoVi.DTS

-->

完整标题:华尔街之狼[HDR/杜比视界双版本][国英多音轨/中文字幕/特效字幕].2013.V3.UHD.BluRay.REMUX.2160p.HEVC.DoVi.DTS-HD.MA5.1.2Audio-DreamHD 80.95GB



◎标  题 华尔街之狼
◎译  名 华尔街狼人(港)
◎片  名 The Wolf of Wall Street
◎年  代 2013
◎产  地 美国
◎类  别 剧情 / 传记 / 犯罪
◎语  言 英语 / 法语
◎上映日期 2013-12-17(纽约首映) / 2013-12-25(美国)
◎IMDb评分 8.2/10 (1544306人评价)
◎IMDb链接 https://www.imdb.com/title/tt0993846/
◎豆瓣评分 8.1/10 (448454人评价)
◎豆瓣链接 https://movie.douban.com/subject/2997076/
◎片  长 180分钟
◎导  演 马丁·斯科塞斯 Martin Scorsese
◎编  剧 特伦斯·温特 Terence Winter
      乔丹·贝尔福特 Jordan Belfort
◎演  员 莱昂纳多·迪卡普里奥 Leonardo DiCaprio
      乔纳·希尔 Jonah Hill
      玛格特·罗比 Margot Robbie
      马修·麦康纳 Matthew McConaughey
      凯尔·钱德勒 Kyle Chandler
      罗伯·莱纳 Rob Reiner
      乔·博恩瑟 Jon Bernthal
      让·杜雅尔丹 Jean Dujardin
      克里斯汀·米利欧缇 Cristin Milioti
      卡塔莉娜·凯斯 Katarina Cas
      斯派克·琼斯 Spike Jonze
      乔恩·费儒 Jon Favreau
      托马斯·米德蒂奇 Thomas Middleditch
      阿雅·卡什 Aya Cash
      谢伊·惠格姆 Shea Whigham
      乔安娜·拉姆利 Joanna Lumley
      肯尼斯·崔 Kenneth Choi
      布莱特·舒伏德 Bret Shuford
      瓦德·霍尔顿 Ward Horton
      伊桑·苏普利 Ethan Suplee
      艾米莉·特里梅因 Emily Tremaine
      杰克·霍夫曼 Jake Hoffman
      乔丹·贝尔福特 Jordan Belfort
      爱德华·赫曼 Edward Herrmann
      Ashley Blankenship Ashley Blankenship
      斯蒂芬妮·库尔特祖巴 Stephanie Kurtzuba
      克斯汀·埃伯索尔 Christine Ebersole
      P·J·伯恩 P.J. Byrne
      弗兰·勒博维茨 Fran Lebowitz
      泰德·格里芬 Ted Griffin
      罗伯特·克洛赫赛 Robert Clohessy
      里兹万·曼吉 Rizwan Manji
      凯瑟琳·科廷 Catherine Curtin
      唐尼·科沙瓦茨 Donnie Keshawarz
      亨利·泽布罗夫斯基 Henry Zebrowski
      J·C·麦肯泽 J.C. MacKenzie
      布莱恩·萨卡 Brian Sacca
      迈克尔·布莱恩·弗兰奇 Michael Bryan French
      阿什莉·阿特金森 Ashlie Atkinson
      Kellen Moriarty Kellen Moriarty
      Sandra Nelson Sandra Nelson
      特雷西·弗里德曼 Tracy Friedman
      迪马·艾特肯 Deema Aitken
      何塞·拉蒙·罗萨里奥 José Ramón Rosario
      丹尼·A·阿贝卡瑟尔 Danny A. Abeckaser
      约翰·贝尔曼 John Behlmann
      布莱恩·伯顿 Bryan Burton
      Sky Watersend Sky Watersend
      马修·劳奇 Matthew Rauch
      丹尼尔·赫普纳 Daniel Hepner
      施塔斯·克拉森 Stass Klassen

◎简  介
    在危机四伏的投资界,掌管史崔顿·奥克蒙公司的乔丹·贝尔福特(莱昂纳多·迪卡普里奥 Leonardo DiCaprio 饰)生活侈靡、实力雄厚。1987年,22岁的乔丹进入罗斯柴尔德公司,从接线员做起,在高级经纪人马克(马修·麦康纳 Matthew McConaughey 饰)指点下,进入了股票经纪人充满毒品和欲望的世界,半年后因“黑色星期一”,乔丹转投靠贩卖“便士股票”的小公司,凭借巧舌如簧获得成功,与邻居唐尼(乔纳·希尔 Jonah Hill 饰)和一班朋友另立门户,游走在灰色地带获利颇丰,获称“华尔街之狼”,然而,FBI已经开始留意他……   本片根据前华尔街股票经纪人乔丹·贝尔福特的个人自传《华尔街之狼》改编。

点击图片可查看大图

软字幕无法在截图上展现,HDR版本/杜比视界版本截图会出现颜色异常,请使用支持的设备播放!

##### MediaInfo ######
General
Unique ID : 226395194545647086821934507823947742692 (0xAA5220E1B6223A2D62A176D912AE7DE4)
Complete name : The.Wolf.of.Wall.Street.2013.V3.UHD.BluRay.REMUX.2160p.HEVC.DoVi.DTS-HD.MA5.1.2Audio-DreamHD.mkv
Duration : 2 h 59 min
Overall bit rate mode : Variable
Overall bit rate : 64.4 Mb/s

Video
ID : 1
ID in the original source medium : 4113 (0x1011)
Format : HEVC
Format/Info : High Efficiency Video Coding
Format profile : Main [email protected]@High
HDR format : Dolby Vision, Version 1.0, dvhe.07.06, BL+EL+RPU, Blu-ray compatible / SMPTE ST 2086, HDR10 compatible
Codec ID : V_MPEGH/ISO/HEVC
Duration : 2 h 59 min
Bit rate : 57.4 Mb/s
Width : 3 840 pixels
Height : 2 160 pixels
Display aspect ratio : 16:9
Frame rate mode : Constant
Frame rate : 23.976 (24000/1001) FPS
Color space : YUV
Chroma subsampling : 4:2:0 (Type 2)
Bit depth : 10 bits
Bits/(Pixel*Frame) : 0.289
Stream size : 72.1 GiB (89%)
Language : English
Default : No
Forced : No
Color range : Limited
Color primaries : BT.2020
Transfer characteristics : PQ
Matrix coefficients : BT.2020 non-constant
Mastering display color primaries : Display P3
Mastering display luminance : min: 0.0001 cd/m2, max: 1000 cd/m2
Original source medium : Blu-ray
SEI_rbsp_stop_one_bit : Missing

Audio #1
ID : 2
ID in the original source medium : 4352 (0x1100)
Format : DTS XLL
Format/Info : Digital Theater Systems
Commercial name : DTS-HD Master Audio
Codec ID : A_DTS
Duration : 2 h 59 min
Bit rate mode : Variable
Bit rate : 3 400 kb/s
Channel(s) : 6 channels
Channel layout : C L R Ls Rs LFE
Sampling rate : 48.0 kHz
Frame rate : 93.750 FPS (512 SPF)
Bit depth : 24 bits
Compression mode : Lossless
Stream size : 4.27 GiB (5%)
Title : 环绕声 5.1
Language : English
Default : Yes
Forced : No
Original source medium : Blu-ray

Audio #2
ID : 3
ID in the original source medium : 4354 (0x1102)
Format : DTS XLL
Format/Info : Digital Theater Systems
Commercial name : DTS-HD Master Audio
Codec ID : A_DTS
Duration : 2 h 59 min
Bit rate mode : Variable
Bit rate : 3 315 kb/s
Channel(s) : 6 channels
Channel layout : C L R Ls Rs LFE
Sampling rate : 48.0 kHz
Frame rate : 93.750 FPS (512 SPF)
Bit depth : 24 bits
Compression mode : Lossless
Stream size : 4.16 GiB (5%)
Title : 环绕声 5.1
Language : Chinese
Default : No
Forced : No
Original source medium : Blu-ray

Text #1
ID : 4
ID in the original source medium : 4769 (0x12A1)
Format : PGS
Codec ID : S_HDMV/PGS
Codec ID/Info : Picture based subtitle format used on BDs/HD-DVDs
Duration : 2 h 53 min
Bit rate : 66.3 kb/s
Frame rate : 0.796 FPS
Count of elements : 8294
Stream size : 82.4 MiB (0%)
Language : English
Default : Yes
Forced : No
Original source medium : Blu-ray

Text #2
ID : 5
ID in the original source medium : 4770 (0x12A2)
Format : PGS
Codec ID : S_HDMV/PGS
Codec ID/Info : Picture based subtitle format used on BDs/HD-DVDs
Duration : 2 h 55 min
Bit rate : 52.4 kb/s
Frame rate : 0.856 FPS
Count of elements : 8995
Stream size : 65.7 MiB (0%)
Language : Chinese
Default : No
Forced : No
Original source medium : Blu-ray

Text #3
ID : 6
ID in the original source medium : 4771 (0x12A3)
Format : PGS
Codec ID : S_HDMV/PGS
Codec ID/Info : Picture based subtitle format used on BDs/HD-DVDs
Duration : 2 h 55 min
Bit rate : 54.4 kb/s
Frame rate : 0.856 FPS
Count of elements : 8995
Stream size : 68.2 MiB (0%)
Language : Chinese
Default : No
Forced : No
Original source medium : Blu-ray

Text #4
ID : 7
ID in the original source medium : 4772 (0x12A4)
Format : PGS
Codec ID : S_HDMV/PGS
Codec ID/Info : Picture based subtitle format used on BDs/HD-DVDs
Duration : 2 h 55 min
Bit rate : 75.5 kb/s
Frame rate : 0.827 FPS
Count of elements : 8695
Stream size : 94.6 MiB (0%)
Language : Chinese
Default : No
Forced : No
Original source medium : Blu-ray

Text #5
ID : 8
ID in the original source medium : 4773 (0x12A5)
Format : PGS
Codec ID : S_HDMV/PGS
Codec ID/Info : Picture based subtitle format used on BDs/HD-DVDs
Duration : 2 h 55 min
Bit rate : 77.5 kb/s
Frame rate : 0.827 FPS
Count of elements : 8695
Stream size : 97.0 MiB (0%)
Language : Chinese
Default : No
Forced : No
Original source medium : Blu-ray

Menu
00:00:00.000 : en:Chapter 01
00:07:56.225 : en:Chapter 02
00:14:18.524 : en:Chapter 03
00:21:31.790 : en:Chapter 04
00:32:08.760 : en:Chapter 05
00:40:15.162 : en:Chapter 06
00:48:33.911 : en:Chapter 07
00:55:22.110 : en:Chapter 08
01:01:56.713 : en:Chapter 09
01:07:01.100 : en:Chapter 10
01:11:29.576 : en:Chapter 11
01:19:50.535 : en:Chapter 12
01:29:07.425 : en:Chapter 13
01:37:48.070 : en:Chapter 14
01:45:12.597 : en:Chapter 15
01:54:40.665 : en:Chapter 16
02:03:20.810 : en:Chapter 17
02:07:28.682 : en:Chapter 18
02:17:13.475 : en:Chapter 19
02:25:26.134 : en:Chapter 20
02:32:09.286 : en:Chapter 21
02:36:39.390 : en:Chapter 22
02:44:19.933 : en:Chapter 23
02:53:04.957 : en:Chapter 24


部分资源为软字幕,移动端推荐播放器:MxPlayer,nPlayer,infuse ,其他播放器请自行尝试。

部分资源为软字幕,电脑端推荐播放器:PotPlayer,完美解码,KMPLAYER,其他播放器请自行尝试。



1 个附件 售价 大小 下载 时间

2013.V3.UHD.BluRay.REMUX.2160p.HEVC.DoVi.DTS-HD.MA5.1.2Audio-DreamHD[1LOU.ME].torrent 0 金币 205.54K 4354 次 1月前

#1楼
发帖时间:2024-02-29 12:42:01   |   回复数:1
feung18
武林盟主
感謝樓主辛苦 !
1月前 #2楼
游客组