Asuka601
隐世仙人♂

[2022] [香港] [剧情] [BD-1080P] 正义回廊[国英多音轨/中文字幕].The.Sparring.Partner.2022.BluRay.REMUX.1080p.AVC.TrueHD7.1.2Aud

-->

完整标题:正义回廊[国英多音轨/中文字幕].The.Sparring.Partner.2022.BluRay.REMUX.1080p.AVC.TrueHD7.1.2Audio-DreamHD 30.95GB



◎标  题 正义回廊
◎译  名 The Cloister of Justice / The Sparring Partner
◎片  名 正義迴廊
◎年  代 2022
◎产  地 中国香港
◎类  别 剧情 / 犯罪
◎语  言 粤语 / 英语 / 德语
◎上映日期 2022-10-27(中国香港) / 2022-08-30(香港国际电影节)
◎IMDb评分 7.2/10 (1349人评价)
◎IMDb链接 https://www.imdb.com/title/tt21867590/
◎豆瓣评分 7.5/10 (78635人评价)
◎豆瓣链接 https://movie.douban.com/subject/35311878/
◎片  长 138分钟
◎导  演 何爵天 Cheuk-tin Ho
◎编  剧 谭广源 Frankie Tam
      叶伟平 Oliver Yip
      梁永豪 Thomas Leung
◎演  员 杨伟伦 Alan Yeung
      麦沛东 Pui Tung Mak
      苏玉华 Yuk-Wah So
      周文健 Michael Chow Man-Kin
      林海峰 Jan Lamb
      叶蕴仪 Gloria Yip
      蔡紫晴 Choi Ching
      邵仲衡 David Siu
      朱柏谦 Chu Pak-Him
      杨诗敏 Harriet Yeung
      庄韵澄 Xenia Chong
      区绍熙 Au Shiu Hee James
      陈甘凤 Chan Kam Fung
      陈桂芬 Brenda Chan
      区焯文 Cheuk Man Au
      黄宇诗 Ursule Wong
      钟雪莹 Chung Said
      邱万城 Samuel Yau
      林善 Lam Sen
      黄华和 Wah Wo Wong
      张凯娸 Kiki Cheung
      王雍泰 Nicke Wong
      柯驿谊 Myth Or
      梁雍婷 Rachel Leung
      张同祖 Tung Cho Cheung
      邓月平 Larine Tang
      孙禾颐 Jenny Suen
      邹凯光 Matt Chow
      何启南 Kai-Nam Ho
      刘锡贤 Shek Yin Lau
      郭慧 Crystal Kwok
      许素莹 So-ying Hui
      区嘉雯 Patra Au
      利沙华 Courtney Wu
      梁永豪 Thomas Leung
      叶伟平 Oliver Yip
      罗颂欣 Debbie Lo
      张武孝 Mo-Hau Cheung
      黄以文
      周厚仁
      黄婉华 Franchesca Wong
      玛丽亚·史密斯 Maria Smith
      郭汉柱 Hon-Chu Kwok

◎简  介
    香港某个破旧逼仄的房间,不断散发着怪异的味道。接到线报后,警方破门而入,继而在两个显得尤其突兀的冰箱内发现两颗人头。死者是一对夫妇,他们被人杀害后还遭到残忍分尸。更让世人震惊的是,手段狠辣无情的凶手不是别人,正是夫妇俩的亲儿子张显宗(杨伟伦 饰)。张的家境富庶,其哥哥是一名优秀的律师,而他也按照父母的规划培养前往海外留学深造。但与哥哥不同,张显宗平庸无为,学业事业坎坷多多,而来自父母的轻视更让他渐趋扭曲。被捕之后,张的共犯——一个看似和张家没有任何瓜葛的男人——唐文奇(麦沛东 饰)浮出水面,他们让法庭审判变得扑朔迷离……   本片根据2013年真实事件改编,并获得第41届香港电影金像奖16项提名。

点击图片可查看大图

软字幕无法在截图上展现,HDR版本/杜比视界版本截图会出现颜色异常,请使用支持的设备播放!

##### MediaInfo ######
General
Unique ID : 227422518964583775735982080686279921030 (0xAB17FBE2D944F5F7F7D5C92DA3F88D86)
Complete name : The.Sparring.Partner.2022.BluRay.REMUX.1080p.AVC.TrueHD7.1.2Audio-DreamHD.mkv
Duration : 2 h 17 min
Overall bit rate mode : Variable
Overall bit rate : 32.2 Mb/s

Video
ID : 1
ID in the original source medium : 4113 (0x1011)
Format : AVC
Format/Info : Advanced Video Codec
Format profile : [email protected]
Format settings : CABAC / 4 Ref Frames
Format settings, CABAC : Yes
Format settings, Reference frames : 4 frames
Codec ID : V_MPEG4/ISO/AVC
Duration : 2 h 17 min
Bit rate mode : Variable
Bit rate : 25.5 Mb/s
Maximum bit rate : 31.0 Mb/s
Width : 1 920 pixels
Height : 1 080 pixels
Display aspect ratio : 16:9
Frame rate mode : Constant
Frame rate : 24.000 FPS
Color space : YUV
Chroma subsampling : 4:2:0
Bit depth : 8 bits
Scan type : Progressive
Bits/(Pixel*Frame) : 0.512
Stream size : 24.5 GiB (79%)
Language : English
Default : No
Forced : No
Original source medium : Blu-ray

Audio #1
ID : 2
ID in the original source medium : 4352 (0x1100)
Format : MLP FBA
Format/Info : Meridian Lossless Packing FBA
Commercial name : Dolby TrueHD
Codec ID : A_TRUEHD
Duration : 2 h 17 min
Bit rate mode : Variable
Bit rate : 3 269 kb/s
Maximum bit rate : 5 100 kb/s
Channel(s) : 8 channels
Channel layout : L R C LFE Ls Rs Lb Rb
Sampling rate : 96.0 kHz
Frame rate : 1 200.000 FPS (80 SPF)
Bit depth : 24 bits
Compression mode : Lossless
Stream size : 3.14 GiB (10%)
Title : 环绕声 7.1
Language : Chinese
Default : Yes
Forced : No
Original source medium : Blu-ray

Audio #2
ID : 3
ID in the original source medium : 4353 (0x1101)
Format : MLP FBA
Format/Info : Meridian Lossless Packing FBA
Commercial name : Dolby TrueHD
Codec ID : A_TRUEHD
Duration : 2 h 17 min
Bit rate mode : Variable
Bit rate : 3 283 kb/s
Maximum bit rate : 5 094 kb/s
Channel(s) : 8 channels
Channel layout : L R C LFE Ls Rs Lb Rb
Sampling rate : 96.0 kHz
Frame rate : 1 200.000 FPS (80 SPF)
Bit depth : 24 bits
Compression mode : Lossless
Stream size : 3.15 GiB (10%)
Title : 环绕声 7.1
Language : Chinese
Default : No
Forced : No
Original source medium : Blu-ray

Text #1
ID : 4
ID in the original source medium : 4608 (0x1200)
Format : PGS
Codec ID : S_HDMV/PGS
Codec ID/Info : Picture based subtitle format used on BDs/HD-DVDs
Duration : 2 h 10 min
Bit rate : 48.2 kb/s
Frame rate : 0.456 FPS
Count of elements : 3569
Stream size : 45.0 MiB (0%)
Language : Chinese
Default : Yes
Forced : No
Original source medium : Blu-ray

Text #2
ID : 5
ID in the original source medium : 4609 (0x1201)
Format : PGS
Codec ID : S_HDMV/PGS
Codec ID/Info : Picture based subtitle format used on BDs/HD-DVDs
Duration : 2 h 10 min
Bit rate : 44.6 kb/s
Frame rate : 0.456 FPS
Count of elements : 3569
Stream size : 41.7 MiB (0%)
Language : Chinese
Default : No
Forced : No
Original source medium : Blu-ray

Text #3
ID : 6
ID in the original source medium : 4611 (0x1203)
Format : PGS
Codec ID : S_HDMV/PGS
Codec ID/Info : Picture based subtitle format used on BDs/HD-DVDs
Duration : 2 h 10 min
Bit rate : 49.1 kb/s
Frame rate : 0.463 FPS
Count of elements : 3623
Stream size : 45.8 MiB (0%)
Language : Chinese
Default : No
Forced : No
Original source medium : Blu-ray

Text #4
ID : 7
ID in the original source medium : 4612 (0x1204)
Format : PGS
Codec ID : S_HDMV/PGS
Codec ID/Info : Picture based subtitle format used on BDs/HD-DVDs
Duration : 2 h 10 min
Bit rate : 45.1 kb/s
Frame rate : 0.463 FPS
Count of elements : 3623
Stream size : 42.1 MiB (0%)
Language : Chinese
Default : No
Forced : No
Original source medium : Blu-ray

Menu
00:00:00.000 : en:Chapter 01
00:07:21.916 : en:Chapter 02
00:13:48.625 : en:Chapter 03
00:22:44.250 : en:Chapter 04
00:31:49.166 : en:Chapter 05
00:41:16.125 : en:Chapter 06
00:49:49.250 : en:Chapter 07
00:57:00.750 : en:Chapter 08
01:02:08.333 : en:Chapter 09
01:06:41.208 : en:Chapter 10
01:12:11.958 : en:Chapter 11
01:22:42.750 : en:Chapter 12
01:31:24.500 : en:Chapter 13
01:40:45.416 : en:Chapter 14
01:45:35.208 : en:Chapter 15
01:57:01.458 : en:Chapter 16
02:03:06.083 : en:Chapter 17
02:12:13.708 : en:Chapter 18


部分资源为软字幕,移动端推荐播放器:MxPlayer,nPlayer,infuse ,其他播放器请自行尝试。

部分资源为软字幕,电脑端推荐播放器:PotPlayer,完美解码,KMPLAYER,其他播放器请自行尝试。



1 个附件 售价 大小 下载 时间

The.Sparring.Partner.2022.BluRay.REMUX.1080p.AVC.TrueHD7.1.2Audio-DreamHD[1LOU.ME].torrent 0 金币 80.48K 2044 次 1月前

#1楼
发帖时间:2024-02-29 12:38:21   |   回复数:1
feung18
武林盟主
感謝樓主辛苦 !
1月前 #2楼
游客组