Asuka601
隐世仙人♂

[2022] [韩国] [动作] [BD-1080P] 犯罪都市2[国语配音/中文字幕/特效字幕].The.Roundup.2022.BluRay.REMUX.1080p.AVC.DTS-HD.MA5.1-Dream

-->

完整标题:犯罪都市2[国语配音/中文字幕/特效字幕].The.Roundup.2022.BluRay.REMUX.1080p.AVC.DTS-HD.MA5.1-DreamHD 26.10GB



◎标  题 犯罪都市2
◎译  名 犯罪都市:极拳执法(港) / The Roundup
◎片  名 범죄도시2
◎年  代 2022
◎产  地 韩国
◎类  别 动作 / 犯罪
◎语  言 韩语 / 越南语 / 汉语普通话 / 英语
◎上映日期 2022-05-18(韩国)
◎IMDb评分 7/10 (9735人评价)
◎IMDb链接 https://www.imdb.com/title/tt15838850/
◎豆瓣评分 7.5/10 (89604人评价)
◎豆瓣链接 https://movie.douban.com/subject/30267287/
◎片  长 106分钟
◎导  演 李相龙 Lee Sang-yong
◎编  剧 马东锡 Ma Dong-seok
      李相龙 Lee Sang-yong
      李英重 Yeong-joong Lee
◎演  员 马东锡 Ma Dong-seok
      孙锡久 Sukku Son
      崔奎华 Gwi-hwa Choi
      朴智焕 Park Ji-hwan
      许栋元 Heo Dong-won
      河俊 Ha Jun
      郑在光 Jaekwang Jeong
      南文哲 Moon-cheol Nam
      朴智英 Park Ji-yeong
      李柱元 Ju-won Lee
      音文硕 Moon-seok Eum
      金灿亨 Kim Chan Hyung
      李奎元 Lee Gyu Won
      全镇吾 Jeon Jin-oh
      李多一 Lee Da Il
      金英成 Kim Young Sung
      车宇振 Woo-Jin Cha
      尹炳熙 Yoon Byeong-hee
      朴恩宇 Park Eun Woo
      金相中 Sang-joong Kim
      韩尚哲 Han Sang Chul

◎简  介
    扫荡加里峰洞任务后过了4年,衿川刑警队前往越南引渡逃走的嫌犯。“怪物刑警”马锡道和全日万组长发现在当地的嫌犯十分可疑,得知其背后有个凶恶残暴的主使者姜海相。马锡道和衿川刑警队奔走于韩国和越南两地,开始缉捕史上最坏的家伙姜海相……

##### MediaInfo ######
General
Unique ID : 267487482891575671277262923395986881156 (0xC93C371E39E912FA5371E7F0C083FA84)
Complete name : The.Roundup.2022.BluRay.REMUX.1080p.AVC.DTS-HD.MA5.1-DreamHD.mkv
Duration : 1 h 46 min
Overall bit rate mode : Variable
Overall bit rate : 35.2 Mb/s

Video
ID : 1
ID in the original source medium : 4113 (0x1011)
Format : AVC
Format/Info : Advanced Video Codec
Format profile : [email protected]
Format settings : CABAC / 4 Ref Frames
Format settings, CABAC : Yes
Format settings, Reference frames : 4 frames
Codec ID : V_MPEG4/ISO/AVC
Duration : 1 h 46 min
Bit rate mode : Variable
Bit rate : 30.7 Mb/s
Maximum bit rate : 32.0 Mb/s
Width : 1 920 pixels
Height : 1 080 pixels
Display aspect ratio : 16:9
Frame rate mode : Constant
Frame rate : 23.976 (24000/1001) FPS
Color space : YUV
Chroma subsampling : 4:2:0
Bit depth : 8 bits
Scan type : Progressive
Bits/(Pixel*Frame) : 0.617
Stream size : 22.7 GiB (87%)
Default : Yes
Forced : No
Original source medium : Blu-ray

Audio
ID : 2
ID in the original source medium : 4353 (0x1101)
Format : DTS XLL
Format/Info : Digital Theater Systems
Commercial name : DTS-HD Master Audio
Codec ID : A_DTS
Duration : 1 h 46 min
Bit rate mode : Variable
Bit rate : 4 391 kb/s
Channel(s) : 6 channels
Channel layout : C L R Ls Rs LFE
Sampling rate : 48.0 kHz
Frame rate : 93.750 FPS (512 SPF)
Bit depth : 24 bits
Compression mode : Lossless
Stream size : 3.25 GiB (12%)
Language : Korean
Default : Yes
Forced : No
Original source medium : Blu-ray

Text #1
ID : 3
ID in the original source medium : 4613 (0x1205)
Format : PGS
Muxing mode : zlib
Codec ID : S_HDMV/PGS
Codec ID/Info : Picture based subtitle format used on BDs/HD-DVDs
Duration : 1 h 45 min
Bit rate : 80.3 kb/s
Frame rate : 0.862 FPS
Count of elements : 5444
Stream size : 60.5 MiB (0%)
Language : Chinese
Default : Yes
Forced : No
Original source medium : Blu-ray

Text #2
ID : 4
ID in the original source medium : 4614 (0x1206)
Format : PGS
Muxing mode : zlib
Codec ID : S_HDMV/PGS
Codec ID/Info : Picture based subtitle format used on BDs/HD-DVDs
Duration : 1 h 45 min
Bit rate : 82.3 kb/s
Frame rate : 0.862 FPS
Count of elements : 5444
Stream size : 62.0 MiB (0%)
Language : Chinese
Default : Yes
Forced : No
Original source medium : Blu-ray

Text #3
ID : 5
ID in the original source medium : 4615 (0x1207)
Format : PGS
Muxing mode : zlib
Codec ID : S_HDMV/PGS
Codec ID/Info : Picture based subtitle format used on BDs/HD-DVDs
Duration : 1 h 45 min
Bit rate : 101 kb/s
Frame rate : 0.862 FPS
Count of elements : 5444
Stream size : 76.4 MiB (0%)
Language : Chinese
Default : Yes
Forced : No
Original source medium : Blu-ray

Text #4
ID : 6
ID in the original source medium : 4616 (0x1208)
Format : PGS
Muxing mode : zlib
Codec ID : S_HDMV/PGS
Codec ID/Info : Picture based subtitle format used on BDs/HD-DVDs
Duration : 1 h 45 min
Bit rate : 103 kb/s
Frame rate : 0.862 FPS
Count of elements : 5444
Stream size : 77.9 MiB (0%)
Language : Chinese
Default : Yes
Forced : No
Original source medium : Blu-ray

Menu
00:00:00.000 : en:Chapter 01


部分资源为软字幕,移动端推荐播放器:MxPlayer,nPlayer,infuse ,其他播放器请自行尝试。

部分资源为软字幕,电脑端推荐播放器:PotPlayer,完美解码,KMPLAYER,其他播放器请自行尝试。



1 个附件 售价 大小 下载 时间

The.Roundup.2022.BluRay.REMUX.1080p.AVC.DTS-HD.MA5.1-DreamHD[1LOU.ME].torrent 0 金币 68.36K 2576 次 1月前

#1楼
发帖时间:2024-02-29 12:36:13   |   回复数:1
jokingcheung
超凡入圣№
谢谢分享
1月前 #2楼
游客组