Asuka601
隐世仙人♂

[2023] [欧美] [动作] [BD-4K] 老方法[中文字幕].The.Old.Way.2023.UHD.BluRay.REMUX.2160p.HEVC.HDR.DTS-HD.MA5.1-DreamHD

-->

完整标题:老方法[中文字幕].The.Old.Way.2023.UHD.BluRay.REMUX.2160p.HEVC.HDR.DTS-HD.MA5.1-DreamHD 38.04GB



◎标  题 老方法
◎译  名 老路
◎片  名 The Old Way
◎年  代 2023
◎产  地 美国
◎类  别 动作 / 西部
◎语  言 英语
◎上映日期 2023-01-06(美国)
◎IMDb评分 5.5/10 (7912人评价)
◎IMDb链接 https://www.imdb.com/title/tt8593824/
◎豆瓣评分 5.4/10 (1470人评价)
◎豆瓣链接 https://movie.douban.com/subject/35592787/
◎片  长 95分钟
◎导  演 布雷特·多诺霍 Brett Donowho
◎编  剧 卡尔·卢卡斯 Carl W. Lucas
◎演  员 尼古拉斯·凯奇 Nicolas Cage
      克林特·霍华德 Clint Howard
      凯丽·科纳佩 Kerry Knuppe
      亚布拉哈姆·本鲁比 Abraham Benrubi
      赖恩·基拉·阿姆斯特朗 Ryan Kiera Armstrong
      尼克·瑟西 Nick Searcy
      希罗·弗南德兹 Shiloh Fernandez
      诺厄·勒·赫罗斯 Noah Le Gros
      博伊德·肯斯特纳 Boyd Kestner
      迪恩·阿姆斯特朗 Dean Armstrong
      艾迪·斯皮尔斯 Eddie Spears
      亚当·拉扎尔-怀特 Adam Lazarre-White
      斯凯勒·斯通 Skyler Stone
      梅兹·阿特伍德 Mezi Atwood
      布雷特·多诺霍 Brett Donowho

◎简  介
    凯奇饰演前神枪手演科尔顿·布里格斯,现在经营着一家杂货店,和家人一起平静地生活。当一帮歹徒残忍地杀害了他的妻子,布里格斯回到家,发现他的世界在燃烧。他掏出手枪,和一个意想不到的人——他12岁的女儿组队一起寻求复仇。

点击图片可查看大图

软字幕无法在截图上展现,HDR版本/杜比视界版本截图会出现颜色异常,请使用支持的设备播放!

##### MediaInfo ######
General
Unique ID : 159712844091804585908633739644643899587 (0x7827932C403D1FD6CF882C37ED64F8C3)
Complete name : The.Old.Way.2023.UHD.BluRay.REMUX.2160p.HEVC.HDR.DTS-HD.MA5.1-DreamHD.mkv
Duration : 1 h 35 min
Overall bit rate mode : Variable
Overall bit rate : 57.1 Mb/s

Video
ID : 1
ID in the original source medium : 4113 (0x1011)
Format : HEVC
Format/Info : High Efficiency Video Coding
Format profile : Main [email protected]@High
HDR format : SMPTE ST 2086, HDR10 compatible
Codec ID : V_MPEGH/ISO/HEVC
Duration : 1 h 35 min
Bit rate : 55.0 Mb/s
Width : 3 840 pixels
Height : 2 160 pixels
Display aspect ratio : 16:9
Frame rate mode : Constant
Frame rate : 23.976 (24000/1001) FPS
Color space : YUV
Chroma subsampling : 4:2:0 (Type 2)
Bit depth : 10 bits
Bits/(Pixel*Frame) : 0.277
Stream size : 36.7 GiB (96%)
Language : English
Default : No
Forced : No
Color range : Limited
Color primaries : BT.2020
Transfer characteristics : PQ
Matrix coefficients : BT.2020 non-constant
Mastering display color primaries : R: x=0.708000 y=0.292000, G: x=0.170000 y=0.970000, B: x=0.131000 y=0.060000, White point: x=0.312700 y=0.329000
Mastering display luminance : min: 0.0010 cd/m2, max: 1000 cd/m2
Maximum Content Light Level : 62 cd/m2
Maximum Frame-Average Light Level : 167 cd/m2
Original source medium : Blu-ray

Audio
ID : 2
ID in the original source medium : 4353 (0x1101)
Format : DTS XLL
Format/Info : Digital Theater Systems
Commercial name : DTS-HD Master Audio
Codec ID : A_DTS
Duration : 1 h 35 min
Bit rate mode : Variable
Bit rate : 1 917 kb/s
Channel(s) : 6 channels
Channel layout : C L R Ls Rs LFE
Sampling rate : 48.0 kHz
Frame rate : 93.750 FPS (512 SPF)
Bit depth : 16 bits
Compression mode : Lossless
Stream size : 1.28 GiB (3%)
Title : 环绕声 5.1
Language : English
Default : Yes
Forced : No
Original source medium : Blu-ray

Text #1
ID : 3
ID in the original source medium : 4770 (0x12A2)
Format : PGS
Codec ID : S_HDMV/PGS
Codec ID/Info : Picture based subtitle format used on BDs/HD-DVDs
Duration : 1 h 31 min
Bit rate : 26.6 kb/s
Frame rate : 0.406 FPS
Count of elements : 2224
Stream size : 17.4 MiB (0%)
Language : Chinese
Default : Yes
Forced : No
Original source medium : Blu-ray

Text #2
ID : 4
ID in the original source medium : 4771 (0x12A3)
Format : PGS
Codec ID : S_HDMV/PGS
Codec ID/Info : Picture based subtitle format used on BDs/HD-DVDs
Duration : 1 h 31 min
Bit rate : 27.0 kb/s
Frame rate : 0.406 FPS
Count of elements : 2224
Stream size : 17.6 MiB (0%)
Language : Chinese
Default : No
Forced : No
Original source medium : Blu-ray

Text #3
ID : 5
ID in the original source medium : 4772 (0x12A4)
Format : PGS
Codec ID : S_HDMV/PGS
Codec ID/Info : Picture based subtitle format used on BDs/HD-DVDs
Duration : 1 h 31 min
Bit rate : 50.0 kb/s
Frame rate : 0.406 FPS
Count of elements : 2224
Stream size : 32.6 MiB (0%)
Language : Chinese
Default : No
Forced : No
Original source medium : Blu-ray

Text #4
ID : 6
ID in the original source medium : 4773 (0x12A5)
Format : PGS
Codec ID : S_HDMV/PGS
Codec ID/Info : Picture based subtitle format used on BDs/HD-DVDs
Duration : 1 h 31 min
Bit rate : 50.4 kb/s
Frame rate : 0.406 FPS
Count of elements : 2224
Stream size : 32.9 MiB (0%)
Language : Chinese
Default : No
Forced : No
Original source medium : Blu-ray

Menu
00:00:00.000 : en:Chapter 01
00:06:36.270 : en:Chapter 02
00:15:45.277 : en:Chapter 03
00:23:47.676 : en:Chapter 04
00:30:26.658 : en:Chapter 05
00:39:07.303 : en:Chapter 06
00:47:55.122 : en:Chapter 07
00:56:44.776 : en:Chapter 08
01:06:18.975 : en:Chapter 09
01:13:46.422 : en:Chapter 10
01:21:28.508 : en:Chapter 11
01:26:37.567 : en:Chapter 12


部分资源为软字幕,移动端推荐播放器:MxPlayer,nPlayer,infuse ,其他播放器请自行尝试。

部分资源为软字幕,电脑端推荐播放器:PotPlayer,完美解码,KMPLAYER,其他播放器请自行尝试。



1 个附件 售价 大小 下载 时间

The.Old.Way.2023.UHD.BluRay.REMUX.2160p.HEVC.HDR.DTS-HD.MA5.1-DreamHD[1LOU.ME].torrent 0 金币 98.17K 1519 次 1月前

#1楼
发帖时间:2024-02-29 12:33:22   |   回复数:1
feung18
武林盟主
感謝樓主辛苦 !
1月前 #2楼
游客组