Asuka601
隐世仙人♂

[2023] [欧美] [动作] [BD-1080P] 老方法[中文字幕].The.Old.Way.2023.BluRay.REMUX.1080p.AVC.DTS-HD.MA5.1-DreamHD 25.71GB

-->

完整标题:老方法[中文字幕].The.Old.Way.2023.BluRay.REMUX.1080p.AVC.DTS-HD.MA5.1-DreamHD 25.71GB



◎标  题 老方法
◎译  名 老路
◎片  名 The Old Way
◎年  代 2023
◎产  地 美国
◎类  别 动作 / 西部
◎语  言 英语
◎上映日期 2023-01-06(美国)
◎IMDb评分 5.5/10 (7912人评价)
◎IMDb链接 https://www.imdb.com/title/tt8593824/
◎豆瓣评分 5.4/10 (1470人评价)
◎豆瓣链接 https://movie.douban.com/subject/35592787/
◎片  长 95分钟
◎导  演 布雷特·多诺霍 Brett Donowho
◎编  剧 卡尔·卢卡斯 Carl W. Lucas
◎演  员 尼古拉斯·凯奇 Nicolas Cage
      克林特·霍华德 Clint Howard
      凯丽·科纳佩 Kerry Knuppe
      亚布拉哈姆·本鲁比 Abraham Benrubi
      赖恩·基拉·阿姆斯特朗 Ryan Kiera Armstrong
      尼克·瑟西 Nick Searcy
      希罗·弗南德兹 Shiloh Fernandez
      诺厄·勒·赫罗斯 Noah Le Gros
      博伊德·肯斯特纳 Boyd Kestner
      迪恩·阿姆斯特朗 Dean Armstrong
      艾迪·斯皮尔斯 Eddie Spears
      亚当·拉扎尔-怀特 Adam Lazarre-White
      斯凯勒·斯通 Skyler Stone
      梅兹·阿特伍德 Mezi Atwood
      布雷特·多诺霍 Brett Donowho

◎简  介
    凯奇饰演前神枪手演科尔顿·布里格斯,现在经营着一家杂货店,和家人一起平静地生活。当一帮歹徒残忍地杀害了他的妻子,布里格斯回到家,发现他的世界在燃烧。他掏出手枪,和一个意想不到的人——他12岁的女儿组队一起寻求复仇。

点击图片可查看大图

软字幕无法在截图上展现,HDR版本/杜比视界版本截图会出现颜色异常,请使用支持的设备播放!

##### MediaInfo ######
General
Unique ID : 163321867432947984537251398847325275877 (0x7ADEA5C2F7FA4BA05E83FE381A8806E5)
Complete name : The.Old.Way.2023.BluRay.REMUX.1080p.AVC.DTS-HD.MA5.1-DreamHD.mkv
Duration : 1 h 35 min
Overall bit rate mode : Variable
Overall bit rate : 38.6 Mb/s

Video
ID : 1
ID in the original source medium : 4113 (0x1011)
Format : AVC
Format/Info : Advanced Video Codec
Format profile : [email protected]
Format settings : CABAC / 4 Ref Frames
Format settings, CABAC : Yes
Format settings, Reference frames : 4 frames
Codec ID : V_MPEG4/ISO/AVC
Duration : 1 h 35 min
Bit rate mode : Variable
Bit rate : 34.8 Mb/s
Maximum bit rate : 37.0 Mb/s
Width : 1 920 pixels
Height : 1 080 pixels
Display aspect ratio : 16:9
Frame rate mode : Constant
Frame rate : 23.976 (24000/1001) FPS
Color space : YUV
Chroma subsampling : 4:2:0
Bit depth : 8 bits
Scan type : Progressive
Bits/(Pixel*Frame) : 0.700
Stream size : 23.2 GiB (90%)
Language : English
Default : No
Forced : No
Original source medium : Blu-ray

Audio
ID : 2
ID in the original source medium : 4352 (0x1100)
Format : DTS XLL
Format/Info : Digital Theater Systems
Commercial name : DTS-HD Master Audio
Codec ID : A_DTS
Duration : 1 h 35 min
Bit rate mode : Variable
Bit rate : 3 555 kb/s
Channel(s) : 6 channels
Channel layout : C L R Ls Rs LFE
Sampling rate : 48.0 kHz
Frame rate : 93.750 FPS (512 SPF)
Bit depth : 24 bits
Compression mode : Lossless
Stream size : 2.37 GiB (9%)
Title : 环绕声 5.1
Language : English
Default : Yes
Forced : No
Original source medium : Blu-ray

Text #1
ID : 3
ID in the original source medium : 4609 (0x1201)
Format : PGS
Codec ID : S_HDMV/PGS
Codec ID/Info : Picture based subtitle format used on BDs/HD-DVDs
Duration : 1 h 29 min
Bit rate : 44.6 kb/s
Frame rate : 0.465 FPS
Count of elements : 2504
Stream size : 28.6 MiB (0%)
Language : English
Default : Yes
Forced : No
Original source medium : Blu-ray

Text #2
ID : 4
ID in the original source medium : 4611 (0x1203)
Format : PGS
Codec ID : S_HDMV/PGS
Codec ID/Info : Picture based subtitle format used on BDs/HD-DVDs
Duration : 1 h 31 min
Bit rate : 26.8 kb/s
Frame rate : 0.406 FPS
Count of elements : 2224
Stream size : 17.5 MiB (0%)
Language : Chinese
Default : No
Forced : No
Original source medium : Blu-ray

Text #3
ID : 5
ID in the original source medium : 4612 (0x1204)
Format : PGS
Codec ID : S_HDMV/PGS
Codec ID/Info : Picture based subtitle format used on BDs/HD-DVDs
Duration : 1 h 31 min
Bit rate : 27.2 kb/s
Frame rate : 0.406 FPS
Count of elements : 2224
Stream size : 17.8 MiB (0%)
Language : Chinese
Default : No
Forced : No
Original source medium : Blu-ray

Text #4
ID : 6
ID in the original source medium : 4613 (0x1205)
Format : PGS
Codec ID : S_HDMV/PGS
Codec ID/Info : Picture based subtitle format used on BDs/HD-DVDs
Duration : 1 h 31 min
Bit rate : 50.7 kb/s
Frame rate : 0.406 FPS
Count of elements : 2224
Stream size : 33.1 MiB (0%)
Language : Chinese
Default : No
Forced : No
Original source medium : Blu-ray

Text #5
ID : 7
ID in the original source medium : 4614 (0x1206)
Format : PGS
Codec ID : S_HDMV/PGS
Codec ID/Info : Picture based subtitle format used on BDs/HD-DVDs
Duration : 1 h 31 min
Bit rate : 51.1 kb/s
Frame rate : 0.406 FPS
Count of elements : 2224
Stream size : 33.3 MiB (0%)
Language : Chinese
Default : No
Forced : No
Original source medium : Blu-ray

Menu
00:00:00.000 : en:Chapter 01
00:06:38.398 : en:Chapter 02
00:14:21.110 : en:Chapter 03
00:21:16.566 : en:Chapter 04
00:27:08.877 : en:Chapter 05
00:37:04.805 : en:Chapter 06
00:42:46.355 : en:Chapter 07
00:47:54.454 : en:Chapter 08
00:53:23.783 : en:Chapter 09
00:56:46.736 : en:Chapter 10
00:58:18.203 : en:Chapter 11
01:06:38.536 : en:Chapter 12
01:11:39.545 : en:Chapter 13
01:18:24.658 : en:Chapter 14
01:22:39.871 : en:Chapter 15
01:27:15.897 : en:Chapter 16


部分资源为软字幕,移动端推荐播放器:MxPlayer,nPlayer,infuse ,其他播放器请自行尝试。

部分资源为软字幕,电脑端推荐播放器:PotPlayer,完美解码,KMPLAYER,其他播放器请自行尝试。



1 个附件 售价 大小 下载 时间

The.Old.Way.2023.BluRay.REMUX.1080p.AVC.DTS-HD.MA5.1-DreamHD[1LOU.ME].torrent 0 金币 67.33K 1022 次 1月前

#1楼
发帖时间:2024-02-29 12:31:58   |   回复数:0
游客组