Asuka601
隐世仙人♂

[2022] [欧美] [惊悚] [BD-1080P] 醒来即死亡[中英字幕].The.Minute.You.Wake.up.Dead.2022.BluRay.REMUX.1080p.AVC.DTS-HD.MA5.1

-->

完整标题:醒来即死亡[中英字幕].The.Minute.You.Wake.up.Dead.2022.BluRay.REMUX.1080p.AVC.DTS-HD.MA5.1-DreamHD 18.59GB



◎标  题 醒来即死亡
◎片  名 The Minute You Wake Up Dead
◎年  代 2022
◎产  地 美国
◎类  别 惊悚
◎语  言 英语
◎上映日期 2022-11-04(美国限定上映)
◎IMDb评分 4.5/10 (2637人评价)
◎IMDb链接 https://www.imdb.com/title/tt11833408/
◎豆瓣评分 5.0/10 (385人评价)
◎豆瓣链接 https://movie.douban.com/subject/35875465/
◎片  长 90分钟
◎演  员 科尔·豪瑟 Cole Hauser
      摩根·弗里曼 Morgan Freeman
      杰米·亚历山大 Jaimie Alexander
      安德鲁 史蒂文斯 Andrew Stevens
      达伦·曼恩 Darren Mann
      本·范德梅 Ben VanderMey
      肯尼斯·法玛尔 Kenneth Farmer
      托尼·德米尔 Tony Demil
      Liann Pattison Liann Pattison

◎简  介
    南部小镇的一名股票经纪人卷入了一场涉及与邻居的保险骗局,这场骗局导致了多起谋杀案。

##### MediaInfo ######
General
Unique ID : 306553167253648664937957534876819246253 (0xE69FFE104A0FD8E290BFBCE95CDFCCAD)
Complete name : The.Minute.You.Wake.up.Dead.2022.BluRay.REMUX.1080p.AVC.DTS-HD.MA5.1-DreamHD.mkv
Duration : 1 h 30 min
Overall bit rate mode : Variable
Overall bit rate : 29.5 Mb/s

Video
ID : 1
ID in the original source medium : 4113 (0x1011)
Format : AVC
Format/Info : Advanced Video Codec
Format profile : [email protected]
Format settings : CABAC / 4 Ref Frames
Format settings, CABAC : Yes
Format settings, Reference frames : 4 frames
Codec ID : V_MPEG4/ISO/AVC
Duration : 1 h 30 min
Bit rate mode : Variable
Bit rate : 26.0 Mb/s
Maximum bit rate : 35.0 Mb/s
Width : 1 920 pixels
Height : 1 080 pixels
Display aspect ratio : 16:9
Frame rate mode : Constant
Frame rate : 23.976 (24000/1001) FPS
Standard : NTSC
Color space : YUV
Chroma subsampling : 4:2:0
Bit depth : 8 bits
Scan type : Progressive
Bits/(Pixel*Frame) : 0.523
Stream size : 16.4 GiB (88%)
Default : Yes
Forced : No
Color range : Limited
Color primaries : BT.709
Transfer characteristics : BT.709
Matrix coefficients : BT.709
Original source medium : Blu-ray

Audio
ID : 2
ID in the original source medium : 4352 (0x1100)
Format : DTS XLL
Format/Info : Digital Theater Systems
Commercial name : DTS-HD Master Audio
Codec ID : A_DTS
Duration : 1 h 30 min
Bit rate mode : Variable
Bit rate : 3 382 kb/s
Channel(s) : 6 channels
Channel layout : C L R Ls Rs LFE
Sampling rate : 48.0 kHz
Frame rate : 93.750 FPS (512 SPF)
Bit depth : 24 bits
Compression mode : Lossless
Stream size : 2.13 GiB (11%)
Language : English
Default : Yes
Forced : No
Original source medium : Blu-ray

Text #1
ID : 3
ID in the original source medium : 4608 (0x1200)
Format : PGS
Muxing mode : zlib
Codec ID : S_HDMV/PGS
Codec ID/Info : Picture based subtitle format used on BDs/HD-DVDs
Duration : 1 h 26 min
Bit rate : 39.9 kb/s
Frame rate : 0.465 FPS
Count of elements : 2406
Stream size : 24.6 MiB (0%)
Language : English
Default : Yes
Forced : No
Original source medium : Blu-ray

Text #2
ID : 4
ID in the original source medium : 4611 (0x1203)
Format : PGS
Muxing mode : zlib
Codec ID : S_HDMV/PGS
Codec ID/Info : Picture based subtitle format used on BDs/HD-DVDs
Duration : 1 h 25 min
Bit rate : 43.8 kb/s
Frame rate : 0.457 FPS
Count of elements : 2352
Stream size : 26.9 MiB (0%)
Language : Chinese
Default : Yes
Forced : No
Original source medium : Blu-ray

Text #3
ID : 5
ID in the original source medium : 4612 (0x1204)
Format : PGS
Muxing mode : zlib
Codec ID : S_HDMV/PGS
Codec ID/Info : Picture based subtitle format used on BDs/HD-DVDs
Duration : 1 h 25 min
Bit rate : 45.0 kb/s
Frame rate : 0.457 FPS
Count of elements : 2352
Stream size : 27.6 MiB (0%)
Language : Chinese
Default : Yes
Forced : No
Original source medium : Blu-ray

Text #4
ID : 6
ID in the original source medium : 4613 (0x1205)
Format : PGS
Muxing mode : zlib
Codec ID : S_HDMV/PGS
Codec ID/Info : Picture based subtitle format used on BDs/HD-DVDs
Duration : 1 h 25 min
Bit rate : 63.6 kb/s
Frame rate : 0.457 FPS
Count of elements : 2352
Stream size : 39.1 MiB (0%)
Language : Chinese
Default : Yes
Forced : No
Original source medium : Blu-ray

Text #5
ID : 7
ID in the original source medium : 4614 (0x1206)
Format : PGS
Muxing mode : zlib
Codec ID : S_HDMV/PGS
Codec ID/Info : Picture based subtitle format used on BDs/HD-DVDs
Duration : 1 h 25 min
Bit rate : 64.8 kb/s
Frame rate : 0.457 FPS
Count of elements : 2352
Stream size : 39.8 MiB (0%)
Language : Chinese
Default : Yes
Forced : No
Original source medium : Blu-ray

Menu
00:00:00.000 : en:Chapter 01
00:09:27.567 : en:Chapter 02
00:17:23.042 : en:Chapter 03
00:28:01.680 : en:Chapter 04
00:33:51.029 : en:Chapter 05
00:40:43.441 : en:Chapter 06
00:46:20.778 : en:Chapter 07
00:55:25.322 : en:Chapter 08
01:01:42.699 : en:Chapter 09
01:07:40.056 : en:Chapter 10
01:16:44.600 : en:Chapter 11
01:27:08.223 : en:Chapter 12


部分资源为软字幕,移动端推荐播放器:MxPlayer,nPlayer,infuse ,其他播放器请自行尝试。

部分资源为软字幕,电脑端推荐播放器:PotPlayer,完美解码,KMPLAYER,其他播放器请自行尝试。



1 个附件 售价 大小 下载 时间

The.Minute.You.Wake.up.Dead.2022.BluRay.REMUX.1080p.AVC.DTS-HD.MA5.1-DreamH..[1LOU.ME].torrent 0 金币 49.58K 1029 次 1月前

#1楼
发帖时间:2024-02-29 12:31:03   |   回复数:0
游客组