Asuka601
隐世仙人♂

[2023] [欧美] [动作] [BD-1080P] 勇敢的皇后[中文字幕].Boudica.2023.Bluray.1080p.AAC2.0.x264-DreamHD 2.96GB

-->

完整标题:勇敢的皇后[中文字幕].Boudica.2023.Bluray.1080p.AAC2.0.x264-DreamHD 2.96GB



◎标  题 勇敢的皇后
◎片  名 Boudica
◎年  代 2023
◎产  地 美国
◎类  别 动作
◎语  言 英语
◎上映日期 2023-10-26(乌克兰)
◎IMDb评分 4.3/10 (1880人评价)
◎IMDb链接 https://www.imdb.com/title/tt22688572/
◎豆瓣链接 https://movie.douban.com/subject/36237109/
◎片  长 101分钟
◎导  演 杰西·约翰逊 Jesse V. Johnson
◎编  剧 杰西·约翰逊 Jesse V. Johnson
◎演  员 欧嘉·柯瑞兰寇 Olga Kurylenko
      克莱夫·斯坦登 Clive Standen
      路茜·马丁 Lucy Martin
      彼得·弗兰森 Peter Franzén
      多米尼克·范登博格 Dominiquie Vandenberg

◎简  介
    The eponymous Celtic warrior who rules the Iceni people alongside her husband Prasutagus. The King dies at the hands of Roman soldiers, leaving Boudica's kingdom without a male heir and the Romans seize her land and property.

点击图片可查看大图

软字幕无法在截图上展现,HDR版本/杜比视界版本截图会出现颜色异常,请使用支持的设备播放!

##### MediaInfo ######
General
Complete name : Boudica.2023.Bluray.1080p.AAC2.0.x264-DreamHD.mp4
Duration : 1 h 40 min
Overall bit rate : 4 193 kb/s

Video
ID : 1
Format : AVC
Format/Info : Advanced Video Codec
Format profile : [email protected]
Format settings : 4 Ref Frames
Format settings, CABAC : No
Format settings, Reference frames : 4 frames
Codec ID : avc1
Codec ID/Info : Advanced Video Coding
Duration : 1 h 40 min
Bit rate : 3 991 kb/s
Width : 1 920 pixels
Height : 1 080 pixels
Display aspect ratio : 16:9
Frame rate mode : Variable
Frame rate : 23.976 (24000/1001) FPS
Minimum frame rate : 23.974 FPS
Maximum frame rate : 23.981 FPS
Color space : YUV
Chroma subsampling : 4:2:0
Bit depth : 8 bits
Scan type : Progressive
Bits/(Pixel*Frame) : 0.080
Stream size : 2.81 GiB (95%)
Writing library : x264 core 164 r3100 ed0f7a6
Encoding settings : cabac=0 / ref=4 / deblock=0:0:0 / analyse=0x1:0x131 / me=umh / subme=9 / psy=1 / psy_rd=1.00:0.00 / mixed_ref=1 / me_range=16 / chroma_me=1 / trellis=2 / 8x8dct=0 / cqm=0 / deadzone=21,11 / fast_pskip=1 / chroma_qp_offset=-2 / threads=34 / lookahead_threads=2 / sliced_threads=0 / nr=0 / decimate=1 / interlaced=0 / bluray_compat=0 / constrained_intra=0 / bframes=3 / b_pyramid=2 / b_adapt=2 / b_bias=0 / direct=3 / weightb=0 / open_gop=0 / weightp=0 / keyint=240 / keyint_min=24 / scenecut=40 / intra_refresh=0 / rc_lookahead=60 / rc=2pass / mbtree=1 / bitrate=4000 / ratetol=1.0 / qcomp=0.60 / qpmin=0 / qpmax=69 / qpstep=4 / cplxblur=20.0 / qblur=0.5 / vbv_maxrate=50000 / vbv_bufsize=62500 / nal_hrd=none / filler=0 / ip_ratio=1.40 / aq=1:1.00
Encoded date : UTC 2024-02-28 16:30:12
Tagged date : UTC 2024-02-28 16:30:12
Color range : Limited
Color primaries : BT.709
Transfer characteristics : BT.709
Matrix coefficients : BT.709
Menus : 3
mdhd_Duration : 6055592
Codec configuration box : avcC

Audio
ID : 2
Format : AAC LC
Format/Info : Advanced Audio Codec Low Complexity
Codec ID : mp4a-40-2
Duration : 1 h 40 min
Source duration : 1 h 40 min
Bit rate mode : Constant
Bit rate : 192 kb/s
Channel(s) : 2 channels
Channel layout : L R
Sampling rate : 48.0 kHz
Frame rate : 46.875 FPS (1024 SPF)
Compression mode : Lossy
Stream size : 141 MiB (5%)
Source stream size : 141 MiB (5%)
Title : 环绕声 5.1
Language : English
Default : Yes
Alternate group : 1
Encoded date : UTC 2024-02-28 16:30:12
Tagged date : UTC 2024-02-28 16:30:12
Menus : 3

Menu
ID : 3
Format : Timed Text
Codec ID : text
Duration : 1 h 40 min
Language : English
Encoded date : UTC 2024-02-28 16:30:12
Tagged date : UTC 2024-02-28 16:30:12
Menu For : 1,2
00:00:00.000 : Chapter 1
00:09:16.139 : Chapter 2
00:18:23.978 : Chapter 3
00:24:40.229 : Chapter 4
00:37:42.010 : Chapter 5
00:43:44.664 : Chapter 6
00:51:27.751 : Chapter 7
01:02:29.996 : Chapter 8
01:09:51.145 : Chapter 9
01:17:33.607 : Chapter 10
01:24:02.037 : Chapter 11
01:35:36.606 : Chapter 12


部分资源为软字幕,移动端推荐播放器:MxPlayer,nPlayer,infuse ,其他播放器请自行尝试。

部分资源为软字幕,电脑端推荐播放器:PotPlayer,完美解码,KMPLAYER,其他播放器请自行尝试。



1 个附件 售价 大小 下载 时间

Boudica.2023.Bluray.1080p.AAC2.0.x264-DreamHD[1LOU.ME].torrent 0 金币 10.51K 1120 次 1月前

#1楼
发帖时间:2024-02-29 12:28:17   |   回复数:1
feung18
武林盟主
感謝樓主辛苦 !
1月前 #2楼
游客组