Asuka601
隐世仙人♂

[2023] [欧美] [动作] [BD-1080P] 勇敢的皇后[简繁英字幕].Boudica.2023.Bluray.1080p.DTS-HDMA5.1.x264-DreamHD 10.75GB

-->

完整标题:勇敢的皇后[简繁英字幕].Boudica.2023.Bluray.1080p.DTS-HDMA5.1.x264-DreamHD 10.75GB



◎标  题 勇敢的皇后
◎片  名 Boudica
◎年  代 2023
◎产  地 美国
◎类  别 动作
◎语  言 英语
◎上映日期 2023-10-26(乌克兰)
◎IMDb评分 4.3/10 (1880人评价)
◎IMDb链接 https://www.imdb.com/title/tt22688572/
◎豆瓣链接 https://movie.douban.com/subject/36237109/
◎片  长 101分钟
◎导  演 杰西·约翰逊 Jesse V. Johnson
◎编  剧 杰西·约翰逊 Jesse V. Johnson
◎演  员 欧嘉·柯瑞兰寇 Olga Kurylenko
      克莱夫·斯坦登 Clive Standen
      路茜·马丁 Lucy Martin
      彼得·弗兰森 Peter Franzén
      多米尼克·范登博格 Dominiquie Vandenberg

◎简  介
    The eponymous Celtic warrior who rules the Iceni people alongside her husband Prasutagus. The King dies at the hands of Roman soldiers, leaving Boudica's kingdom without a male heir and the Romans seize her land and property.

点击图片可查看大图

软字幕无法在截图上展现,HDR版本/杜比视界版本截图会出现颜色异常,请使用支持的设备播放!

##### MediaInfo ######
General
Unique ID : 15873149193594344426225846864668754200 (0xBF10EAD770EF79372F8550A4B9F8118)
Complete name : Boudica.2023.Bluray.1080p.DTS-HDMA5.1.x264-DreamHD.mkv
Duration : 1 h 40 min
Overall bit rate mode : Variable
Overall bit rate : 15.2 Mb/s

Video
ID : 1
Format : AVC
Format/Info : Advanced Video Codec
Format profile : [email protected]
Format settings : CABAC / 5 Ref Frames
Format settings, CABAC : Yes
Format settings, Reference frames : 5 frames
Codec ID : V_MPEG4/ISO/AVC
Duration : 1 h 40 min
Bit rate : 13.1 Mb/s
Width : 1 920 pixels
Height : 804 pixels
Display aspect ratio : 2.40:1
Frame rate mode : Constant
Frame rate : 23.976 (24000/1001) FPS
Color space : YUV
Chroma subsampling : 4:2:0
Bit depth : 8 bits
Scan type : Progressive
Bits/(Pixel*Frame) : 0.354
Stream size : 9.25 GiB (86%)
Writing library : x264 core 164 r3094 bfc87b7
Encoding settings : cabac=1 / ref=5 / deblock=1:-3:-3 / analyse=0x3:0x133 / me=umh / subme=11 / psy=1 / psy_rd=1.00:0.00 / mixed_ref=1 / me_range=64 / chroma_me=1 / trellis=2 / 8x8dct=1 / cqm=0 / deadzone=21,11 / fast_pskip=0 / chroma_qp_offset=-2 / threads=25 / lookahead_threads=6 / sliced_threads=0 / nr=0 / decimate=0 / interlaced=0 / bluray_compat=0 / constrained_intra=0 / bframes=12 / b_pyramid=2 / b_adapt=2 / b_bias=0 / direct=3 / weightb=1 / open_gop=0 / weightp=2 / keyint=250 / keyint_min=23 / scenecut=40 / intra_refresh=0 / rc=crf / mbtree=0 / crf=18.4 / qcomp=0.70 / qpmin=0 / qpmax=69 / qpstep=4 / ip_ratio=1.30 / pb_ratio=1.20 / aq=3:0.80
Default : Yes
Forced : No
Color range : Limited
Color primaries : BT.709
Matrix coefficients : BT.709

Audio
ID : 2
ID in the original source medium : 4353 (0x1101)
Format : DTS XLL
Format/Info : Digital Theater Systems
Commercial name : DTS-HD Master Audio
Codec ID : A_DTS
Duration : 1 h 40 min
Bit rate mode : Variable
Bit rate : 2 065 kb/s
Channel(s) : 6 channels
Channel layout : C L R Ls Rs LFE
Sampling rate : 48.0 kHz
Frame rate : 93.750 FPS (512 SPF)
Bit depth : 16 bits
Compression mode : Lossless
Stream size : 1.46 GiB (14%)
Title : English
Language : English
Default : Yes
Forced : No
Original source medium : Blu-ray

Text #1
ID : 3
ID in the original source medium : 4610 (0x1202)
Format : PGS
Muxing mode : zlib
Codec ID : S_HDMV/PGS
Codec ID/Info : Picture based subtitle format used on BDs/HD-DVDs
Duration : 26 min 21 s
Bit rate : 1 634 b/s
Frame rate : 0.016 FPS
Count of elements : 26
Stream size : 315 KiB (0%)
Title : ENG
Language : English
Default : No
Forced : No
Original source medium : Blu-ray

Text #2
ID : 4
ID in the original source medium : 4611 (0x1203)
Format : PGS
Muxing mode : zlib
Codec ID : S_HDMV/PGS
Codec ID/Info : Picture based subtitle format used on BDs/HD-DVDs
Duration : 1 h 34 min
Bit rate : 22.6 kb/s
Frame rate : 0.309 FPS
Count of elements : 1750
Stream size : 15.3 MiB (0%)
Title : CHS
Language : Chinese
Default : No
Forced : No
Original source medium : Blu-ray

Text #3
ID : 5
ID in the original source medium : 4612 (0x1204)
Format : PGS
Muxing mode : zlib
Codec ID : S_HDMV/PGS
Codec ID/Info : Picture based subtitle format used on BDs/HD-DVDs
Duration : 1 h 34 min
Bit rate : 23.3 kb/s
Frame rate : 0.309 FPS
Count of elements : 1750
Stream size : 15.7 MiB (0%)
Title : CHT
Language : Chinese
Default : No
Forced : No
Original source medium : Blu-ray

Text #4
ID : 6
ID in the original source medium : 4613 (0x1205)
Format : PGS
Muxing mode : zlib
Codec ID : S_HDMV/PGS
Codec ID/Info : Picture based subtitle format used on BDs/HD-DVDs
Duration : 1 h 34 min
Bit rate : 36.6 kb/s
Frame rate : 0.309 FPS
Count of elements : 1751
Stream size : 24.7 MiB (0%)
Title : CHS/ENG
Language : Chinese
Default : Yes
Forced : No
Original source medium : Blu-ray

Text #5
ID : 7
ID in the original source medium : 4614 (0x1206)
Format : PGS
Muxing mode : zlib
Codec ID : S_HDMV/PGS
Codec ID/Info : Picture based subtitle format used on BDs/HD-DVDs
Duration : 1 h 34 min
Bit rate : 37.3 kb/s
Frame rate : 0.309 FPS
Count of elements : 1751
Stream size : 25.2 MiB (0%)
Title : CHT/ENG
Language : Chinese
Default : No
Forced : No
Original source medium : Blu-ray

Menu
00:00:00.000 : en:Chapter 01
00:09:16.097 : en:Chapter 02
00:18:23.977 : en:Chapter 03
00:24:40.228 : en:Chapter 04
00:37:42.009 : en:Chapter 05
00:43:44.663 : en:Chapter 06
00:51:27.626 : en:Chapter 07
01:02:29.829 : en:Chapter 08
01:09:50.978 : en:Chapter 09
01:17:33.482 : en:Chapter 10
01:24:01.870 : en:Chapter 11
01:35:36.605 : en:Chapter 12


部分资源为软字幕,移动端推荐播放器:MxPlayer,nPlayer,infuse ,其他播放器请自行尝试。

部分资源为软字幕,电脑端推荐播放器:PotPlayer,完美解码,KMPLAYER,其他播放器请自行尝试。



1 个附件 售价 大小 下载 时间

Boudica.2023.Bluray.1080p.DTS-HDMA5.1.x264-DreamHD[1LOU.ME].torrent 0 金币 30.00K 1148 次 1月前

#1楼
发帖时间:2024-02-29 12:25:59   |   回复数:0
游客组