Asuka601
隐世仙人♂

[2020] [欧美] [动作] [WEB-4K] 长夜危机[60帧率版本][高码版][中文字幕].Survive.the.Night.2020.2160p.HQ.WEB-DL.H265.60fps.AAC-Dr

-->

完整标题:长夜危机[60帧率版本][高码版][中文字幕].Survive.the.Night.2020.2160p.HQ.WEB-DL.H265.60fps.AAC-DreamHD 15.22GB



◎标  题 长夜危机
◎译  名 恶夜救援(台) / 渡劫之夜 / 长夜 / 开源 / The Long Night / Open Source
◎片  名 Survive the Night
◎年  代 2020
◎产  地 美国
◎类  别 动作 / 惊悚
◎语  言 英语
◎上映日期 2020-05-22(美国)
◎IMDb评分 4/10 (11521人评价)
◎IMDb链接 https://www.imdb.com/title/tt10303324/
◎豆瓣评分 3.8/10 (745人评价)
◎豆瓣链接 https://movie.douban.com/subject/33440170/
◎片  长 90分钟
◎导  演 马特·伊斯坎达里 Matt Eskandari
◎演  员 查德·迈克尔·墨瑞 Chad Michael Murray
      布鲁斯·威利斯 Bruce Willis
      谢伊·巴克纳 Shea Buckner
      泰勒·乔恩·奥尔森 Tyler Jon Olson
      丽迪雅·赫尔 Lydia Hull

◎简  介
    布鲁斯·威利斯将主演马特·伊斯坎达里([深水区])执导的动作惊悚片[长夜](The Long Night,暂译)。影片讲述两个冷血罪犯闯入一个市井医生家中,为其中一个因抢劫失败身负重伤的罪犯治疗。然而这位医生并不具备治疗罪犯伤情的医学技能,医生该如何保护他的家人呢?影片将于6月3日佐治亚州哥伦布开机。

点击图片可查看大图

软字幕无法在截图上展现,HDR版本/杜比视界版本截图会出现颜色异常,请使用支持的设备播放!

##### MediaInfo ######
General
Unique ID : 76351242166647765904399656049379193070 (0x3970B6E02A50414251B056B76BD530EE)
Complete name : Survive.the.Night.2020.2160p.HQ.WEB-DL.H265.60fps.AAC-DreamHD.mkv
Duration : 1 h 27 min
Overall bit rate : 25.0 Mb/s

Video
ID : 1
Format : HEVC
Format/Info : High Efficiency Video Coding
Format profile : Main [email protected]@Main
Codec ID : V_MPEGH/ISO/HEVC
Duration : 1 h 27 min
Bit rate : 24.8 Mb/s
Width : 3 840 pixels
Height : 2 160 pixels
Display aspect ratio : 16:9
Frame rate mode : Constant
Frame rate : 59.759 FPS
Original frame rate : 60.000 FPS
Color space : YUV
Chroma subsampling : 4:2:0
Bit depth : 10 bits
Bits/(Pixel*Frame) : 0.050
Stream size : 15.1 GiB (99%)
Default : Yes
Forced : No
Color range : Limited
Color primaries : BT.709
Transfer characteristics : BT.709
Matrix coefficients : BT.709

Audio
ID : 2
Format : AAC LC
Format/Info : Advanced Audio Codec Low Complexity
Codec ID : A_AAC-2
Duration : 1 h 27 min
Bit rate : 192 kb/s
Channel(s) : 2 channels
Channel layout : L R
Sampling rate : 44.1 kHz
Frame rate : 43.066 FPS (1024 SPF)
Compression mode : Lossy
Stream size : 119 MiB (1%)
Language : English
Default : Yes
Forced : No


部分资源为软字幕,移动端推荐播放器:MxPlayer,nPlayer,infuse ,其他播放器请自行尝试。

部分资源为软字幕,电脑端推荐播放器:PotPlayer,完美解码,KMPLAYER,其他播放器请自行尝试。



1 个附件 售价 大小 下载 时间

Survive.the.Night.2020.2160p.HQ.WEB-DL.H265.60fps.AAC-DreamHD[1LOU.ME].torrent 0 金币 41.15K 1239 次 1月前

#1楼
发帖时间:2024-02-29 08:06:03   |   回复数:2
亚瑟王
一派掌门
谢谢楼主分享
1月前 #2楼
feung18
武林盟主
感謝樓主辛苦 !
1月前 #3楼
游客组