Asuka601
隐世仙人♂

[更 早] [欧美] [剧情] [BD-1080P] 私恋失调[中文字幕].PunchDrunk.Love.2002.BluRay.1080p.AAC.x264-DreamHD 2.79GB

-->

完整标题:私恋失调[中文字幕].PunchDrunk.Love.2002.BluRay.1080p.AAC.x264-DreamHD 2.79GB



◎标  题 私恋失调
◎译  名 拳击情缘 / 爱昏头 / 恋爱鸡尾酒 / 狂野之爱 / 百味情感 / 糊涂的爱
◎片  名 Punch-Drunk Love
◎年  代 2002
◎产  地 美国
◎类  别 剧情 / 喜剧 / 爱情
◎语  言 英语
◎上映日期 2002-11-01(美国)
◎IMDb评分 7.3/10 (169987人评价)
◎IMDb链接 https://www.imdb.com/title/tt0272338/
◎豆瓣评分 7.9/10 (14501人评价)
◎豆瓣链接 https://movie.douban.com/subject/1300211/
◎片  长 95分钟
◎导  演 保罗·托马斯·安德森 Paul Thomas Anderson
◎编  剧 保罗·托马斯·安德森 Paul Thomas Anderson
◎演  员 亚当·桑德勒 Adam Sandler
      艾米丽·沃森 Emily Watson
      菲利普·塞默·霍夫曼 Philip Seymour Hoffman
      路易斯·古兹曼 Luis Guzmán
      玛丽·莱恩·莱杰斯库 Mary Lynn Rajskub
      罗伯特·斯密戈尔 Robert Smigel
      Jason Andrews Jason Andrews
      Kerry Gelbard Kerry Gelbard
      Ross Lasi Tanoai Ross Lasi Tanoai
      Karen Kilgariff Karen Kilgariff

◎简  介
    单身汉Barry Egan(亚当·桑德勒 Adam Sandler 饰)经营着一家小工厂,生活在七个姐姐压力下的他会不时地哭泣、用暴力来发泄情绪,乱砸东西。这天他在路上捡回了一个被人丢弃的小钢琴,还认识了一个女子。原来这个女子正是他的一个姐姐想要介绍给他认识的Lena Leonard(艾米丽·沃森 Emily Watson 饰),两人相约改天一起吃晚餐。夜里寂寞无聊的Barry拨打了一个色情电话,和电话里的女郎聊的不亦乐乎,却也惹上了麻烦:女郎付不起房租跟他借钱被拒绝后,便不断打电话骚扰他。Barry和Lena第一次约会后,两人情投意合。然而当Barry回到家的时候,却遭到了一伙人的打劫,原来是经营色情电话公司的Dean(菲利普·塞默·霍夫曼 Philip Seymour Hoffman 饰)派来的。当Lena在夏威夷出差的时候,Barry更破天荒地去夏威夷寻找她,两人确立了恋爱关系。当那伙人再次开车撞了Barry的车时,Lena受伤了,Barry终于爆发了......

点击图片可查看大图

软字幕无法在截图上展现,HDR版本/杜比视界版本截图会出现颜色异常,请使用支持的设备播放!

##### MediaInfo ######
General
Complete name : PunchDrunk.Love.2002.BluRay.1080p.AAC.x264-DreamHD.mp4
Duration : 1 h 35 min
Overall bit rate : 4 197 kb/s

Video
ID : 1
Format : AVC
Format/Info : Advanced Video Codec
Format profile : Main@L4
Format settings : 4 Ref Frames
Format settings, CABAC : No
Format settings, Reference frames : 4 frames
Codec ID : avc1
Codec ID/Info : Advanced Video Coding
Duration : 1 h 35 min
Bit rate : 3 997 kb/s
Width : 1 920 pixels
Height : 1 080 pixels
Display aspect ratio : 16:9
Frame rate mode : Variable
Frame rate : 23.976 (24000/1001) FPS
Minimum frame rate : 23.974 FPS
Maximum frame rate : 23.981 FPS
Color space : YUV
Chroma subsampling : 4:2:0
Bit depth : 8 bits
Scan type : Progressive
Bits/(Pixel*Frame) : 0.080
Stream size : 2.66 GiB (95%)
Writing library : x264 core 164 r3100 ed0f7a6
Encoding settings : cabac=0 / ref=4 / deblock=0:0:0 / analyse=0x1:0x131 / me=umh / subme=9 / psy=1 / psy_rd=1.00:0.00 / mixed_ref=1 / me_range=16 / chroma_me=1 / trellis=2 / 8x8dct=0 / cqm=0 / deadzone=21,11 / fast_pskip=1 / chroma_qp_offset=-2 / threads=12 / lookahead_threads=1 / sliced_threads=0 / nr=0 / decimate=1 / interlaced=0 / bluray_compat=0 / constrained_intra=0 / bframes=3 / b_pyramid=2 / b_adapt=2 / b_bias=0 / direct=3 / weightb=0 / open_gop=0 / weightp=0 / keyint=240 / keyint_min=24 / scenecut=40 / intra_refresh=0 / rc_lookahead=60 / rc=2pass / mbtree=1 / bitrate=4000 / ratetol=1.0 / qcomp=0.60 / qpmin=0 / qpmax=69 / qpstep=4 / cplxblur=20.0 / qblur=0.5 / vbv_maxrate=20000 / vbv_bufsize=25000 / nal_hrd=none / filler=0 / ip_ratio=1.40 / aq=1:1.00
Encoded date : UTC 2024-02-27 16:09:12
Tagged date : UTC 2024-02-27 16:09:12
Color range : Limited
Color primaries : BT.709
Transfer characteristics : BT.709
Matrix coefficients : BT.709
Menus : 3
mdhd_Duration : 5707702
Codec configuration box : avcC

Audio
ID : 2
Format : AAC LC
Format/Info : Advanced Audio Codec Low Complexity
Codec ID : mp4a-40-2
Duration : 1 h 35 min
Source duration : 1 h 35 min
Bit rate mode : Constant
Bit rate : 192 kb/s
Channel(s) : 2 channels
Channel layout : L R
Sampling rate : 48.0 kHz
Frame rate : 46.875 FPS (1024 SPF)
Compression mode : Lossy
Stream size : 132 MiB (5%)
Source stream size : 132 MiB (5%)
Title : ENG
Language : English
Default : Yes
Alternate group : 1
Encoded date : UTC 2024-02-27 16:09:12
Tagged date : UTC 2024-02-27 16:09:12
Menus : 3

Menu
ID : 3
Format : Timed Text
Codec ID : text
Duration : 1 h 35 min
Language : English
Encoded date : UTC 2024-02-27 16:09:12
Tagged date : UTC 2024-02-27 16:09:12
Bit rate mode : CBR
Menu For : 1,2
00:00:00.000 : 第 01 章
00:07:30.033 : 第 02 章
00:15:41.858 : 第 03 章
00:22:05.825 : 第 04 章
00:29:21.385 : 第 05 章
00:41:39.789 : 第 06 章
00:43:13.049 : 第 07 章
00:48:50.344 : 第 08 章
00:54:53.582 : 第 09 章
00:57:25.609 : 第 10 章
01:00:48.353 : 第 11 章
01:07:12.570 : 第 12 章
01:11:10.850 : 第 13 章
01:15:52.840 : 第 14 章
01:20:43.881 : 第 15 章
01:23:56.281 : 第 16 章
Bit rate mode : Constant


部分资源为软字幕,移动端推荐播放器:MxPlayer,nPlayer,infuse ,其他播放器请自行尝试。

部分资源为软字幕,电脑端推荐播放器:PotPlayer,完美解码,KMPLAYER,其他播放器请自行尝试。



1 个附件 售价 大小 下载 时间

PunchDrunk.Love.2002.BluRay.1080p.AAC.x264-DreamHD[1LOU.ME].torrent 0 金币 10.11K 1078 次 1月前

#1楼
发帖时间:2024-02-29 08:03:47   |   回复数:0
游客组