Asuka601
隐世仙人♂

[2019] [欧美] [动作] [BD-1080P] 惊奇队长[国英多音轨/中文字幕/特效字幕].Captain.Marvel.2019.V2.BluRay.1080p.DTS-HDMA7.1.x264-Dream

-->

完整标题:惊奇队长[国英多音轨/中文字幕/特效字幕].Captain.Marvel.2019.V2.BluRay.1080p.DTS-HDMA7.1.x264-DreamHD 20.62GB



◎标  题 惊奇队长
◎译  名 Marvel队长(港) / 漫威队长 / 惊奇女士
◎片  名 Captain Marvel
◎年  代 2019
◎产  地 美国 / 澳大利亚
◎类  别 动作 / 科幻 / 冒险
◎语  言 英语
◎上映日期 2019-03-08(美国 / 中国大陆)
◎IMDb评分 6.8/10 (570946人评价)
◎IMDb链接 https://www.imdb.com/title/tt4154664/
◎豆瓣评分 6.8/10 (492208人评价)
◎豆瓣链接 https://movie.douban.com/subject/26213252/
◎片  长 124分钟
◎导  演 安娜·波顿 Anna Boden
      瑞安·弗雷克 Ryan Fleck
◎编  剧 安娜·波顿 Anna Boden
      瑞安·弗雷克 Ryan Fleck
      吉内瓦·德沃莱特-罗宾森 Geneva Robertson-Dworet
      尼科尔·帕尔曼 Nicole Perlman
      梅格·勒福夫 Meg LeFauve
      吉因·科兰 Gene Colan
      罗伊·托马斯 Roy Thomas
◎演  员 布丽·拉尔森 Brie Larson
      裘德·洛 Jude Law
      塞缪尔·杰克逊 Samuel L. Jackson
      本·门德尔森 Ben Mendelsohn
      安妮特·贝宁 Annette Bening
      麦肯娜·格瑞丝 Mckenna Grace
      克拉克·格雷格 Clark Gregg
      嘉玛·陈 Gemma Chan
      李·佩斯 Lee Pace
      杰曼·翰苏 Djimon Hounsou
      拉什纳·林奇 Lashana Lynch
      阿基拉·阿克巴 Akira Akbar
      科林·福特 Colin Ford
      卓库·莫度 Chuku Modu
      肯内特·米歇尔 Kenneth Mitchell
      罗伯特·卡辛斯基 Robert Kazinsky
      詹姆斯·莫里森 James Morrison
      皮特·普劳泽克 Pete Ploszek
      马修·马希尔 Matthew Maher
      安东尼·莫利纳利 Anthony Molinari
      马修·弗林·贝罗斯 Matthew Flynn Bellows
      加斯顿·达尔莫 Gastón Dalmau
      亚当·哈特 Adam Hart
      马克·多尔蒂 Mark Daugherty
      雷尼尔·鲁菲诺 Rayniel Rufino
      约翰·盖蒂尔 John Gettier
      斯坦·李 Stan Lee
      克里斯·埃文斯 Chris Evans
      斯嘉丽·约翰逊 Scarlett Johansson
      马克·鲁弗洛 Mark Ruffalo
      唐·钱德尔 Don Cheadle
      克莱顿·基蒂 Clayton Chitty
      伦敦·富勒 London Fuller
      里索 Rizzo
      阿奇 Archie
      阿尔赫尼斯·佩雷斯·索托 Algenis Perez Soto
      鲁内·泰特 Rune Temte
      雷吉 Reggie
      贡佐 Gonzo
      阿比盖尔·奥兹里 Abigaille Ozrey

◎简  介
    在围剿斯克鲁人的战斗中,克里人星际战队成员弗斯(布丽·拉尔森 Brie Larson 饰)不幸成为对方的俘虏。斯克鲁人尝试探究弗斯的记忆,最终发现连弗斯本人都不知道的一段往事,进而也得知名为温迪•劳森博士的女子掌握着他们急于得到的时空引擎。趁对方不备,拥有强大超能力的弗斯摆脱束缚,逃到了代号为C-53的地球,而这里也正是她那段失落的记忆的发生地。未过多久,神盾局探员弗瑞特工(塞缪尔·杰克逊 Samuel L. Jackson 饰)找上门来,而紧随其后的斯克鲁人更是引发了地球人前所未见的大骚动。   在这一过程中,弗瑞特工意识到事态的严重性,并且帮助弗斯认清本来的自己。倔强的弗斯,终于找到了真正需要保护的东西……

##### MediaInfo ######
General
Unique ID : 54535926568360670863574396562538975332 (0x29073CC66583842790BF7805F7335064)
Complete name : Captain.Marvel.2019.V2.BluRay.1080p.DTS-HDMA7.1.x264-DreamHD.mkv
Duration : 2 h 3 min
Overall bit rate mode : Variable
Overall bit rate : 23.9 Mb/s

Video
ID : 1
Format : AVC
Format/Info : Advanced Video Codec
Format profile : [email protected]
Format settings : CABAC / 5 Ref Frames
Format settings, CABAC : Yes
Format settings, Reference frames : 5 frames
Codec ID : V_MPEG4/ISO/AVC
Duration : 2 h 3 min
Bit rate : 9 682 kb/s
Width : 1 920 pixels
Height : 804 pixels
Display aspect ratio : 2.40:1
Frame rate mode : Constant
Frame rate : 23.976 (24000/1001) FPS
Color space : YUV
Chroma subsampling : 4:2:0
Bit depth : 8 bits
Scan type : Progressive
Bits/(Pixel*Frame) : 0.262
Stream size : 8.37 GiB (41%)
Writing library : x264 core 164 r3106 eaa68fa
Encoding settings : cabac=1 / ref=5 / deblock=1:-3:-3 / analyse=0x3:0x133 / me=umh / subme=11 / psy=1 / psy_rd=1.00:0.00 / mixed_ref=1 / me_range=64 / chroma_me=1 / trellis=2 / 8x8dct=1 / cqm=0 / deadzone=21,11 / fast_pskip=0 / chroma_qp_offset=-2 / threads=24 / lookahead_threads=6 / sliced_threads=0 / nr=0 / decimate=0 / interlaced=0 / bluray_compat=0 / constrained_intra=0 / bframes=12 / b_pyramid=2 / b_adapt=2 / b_bias=0 / direct=3 / weightb=1 / open_gop=0 / weightp=2 / keyint=250 / keyint_min=23 / scenecut=40 / intra_refresh=0 / rc=crf / mbtree=0 / crf=17.0 / qcomp=0.70 / qpmin=0 / qpmax=69 / qpstep=4 / ip_ratio=1.30 / pb_ratio=1.20 / aq=3:0.80
Default : Yes
Forced : No
Color range : Limited
Color primaries : BT.709
Matrix coefficients : BT.709

Audio #1
ID : 2
ID in the original source medium : 4352 (0x1100)
Format : DTS XLL
Format/Info : Digital Theater Systems
Commercial name : DTS-HD Master Audio
Codec ID : A_DTS
Duration : 2 h 3 min
Bit rate mode : Variable
Bit rate : 4 777 kb/s
Channel(s) : 8 channels
Channel layout : C L R LFE Lb Rb Lss Rss
Sampling rate : 48.0 kHz
Frame rate : 93.750 FPS (512 SPF)
Bit depth : 24 bits
Compression mode : Lossless
Stream size : 4.13 GiB (20%)
Language : English
Default : Yes
Forced : No
Original source medium : Blu-ray

Audio #2
ID : 3
ID in the original source medium : 4354 (0x1102)
Format : DTS XLL X
Format/Info : Digital Theater Systems
Commercial name : DTS-HD Master Audio
Codec ID : A_DTS
Duration : 2 h 3 min
Bit rate mode : Variable
Bit rate : 3 233 kb/s
Channel(s) : 8 channels
Channel(s)_Original : Object Based
ChannelLayout_Original : Object Based
Sampling rate : 48.0 kHz
Frame rate : 93.750 FPS (512 SPF)
Bit depth : 24 bits
Stream size : 2.79 GiB (14%)
Title : 重混中影公映国语
Language : Chinese
Default : Yes
Forced : No
Original source medium : Blu-ray

Audio #3
ID : 4
ID in the original source medium : 4355 (0x1103)
Format : DTS XLL
Format/Info : Digital Theater Systems
Commercial name : DTS-HD Master Audio
Codec ID : A_DTS
Duration : 2 h 3 min
Bit rate mode : Variable
Bit rate : 5 432 kb/s
Channel(s) : 8 channels
Channel layout : C L R LFE Lb Rb Lss Rss
Sampling rate : 48.0 kHz
Frame rate : 93.750 FPS (512 SPF)
Bit depth : 24 bits
Compression mode : Lossless
Stream size : 4.69 GiB (23%)
Title : 重混央视公映国语
Language : Chinese
Default : Yes
Forced : No
Original source medium : Blu-ray

Audio #4
ID : 5
ID in the original source medium : 4356 (0x1104)
Format : AC-3
Format/Info : Audio Coding 3
Commercial name : Dolby Digital
Codec ID : A_AC3
Duration : 2 h 3 min
Bit rate mode : Constant
Bit rate : 192 kb/s
Channel(s) : 2 channels
Channel layout : L R
Sampling rate : 48.0 kHz
Frame rate : 31.250 FPS (1536 SPF)
Compression mode : Lossy
Stream size : 170 MiB (1%)
Title : 导评
Language : English
Service kind : Complete Main
Default : Yes
Forced : No
Original source medium : Blu-ray

Text #1
ID : 6
ID in the original source medium : 4608 (0x1200)
Format : PGS
Codec ID : S_HDMV/PGS
Codec ID/Info : Picture based subtitle format used on BDs/HD-DVDs
Duration : 1 h 53 min
Bit rate : 29.6 kb/s
Frame rate : 0.372 FPS
Count of elements : 2540
Stream size : 24.1 MiB (0%)
Language : English
Default : Yes
Forced : No
Original source medium : Blu-ray

Text #2
ID : 7
ID in the original source medium : 4610 (0x1202)
Format : PGS
Codec ID : S_HDMV/PGS
Codec ID/Info : Picture based subtitle format used on BDs/HD-DVDs
Duration : 2 h 2 min
Bit rate : 16.6 kb/s
Frame rate : 0.359 FPS
Count of elements : 2638
Stream size : 14.5 MiB (0%)
Title : 原盘粤语中字
Language : Chinese
Default : Yes
Forced : No
Original source medium : Blu-ray

Text #3
ID : 8
ID in the original source medium : 4611 (0x1203)
Format : PGS
Codec ID : S_HDMV/PGS
Codec ID/Info : Picture based subtitle format used on BDs/HD-DVDs
Duration : 2 h 2 min
Bit rate : 19.2 kb/s
Frame rate : 0.360 FPS
Count of elements : 2642
Stream size : 16.8 MiB (0%)
Title : 原盘繁体中文
Language : Chinese
Default : Yes
Forced : No
Original source medium : Blu-ray

Text #4
ID : 9
ID in the original source medium : 4612 (0x1204)
Format : PGS
Codec ID : S_HDMV/PGS
Codec ID/Info : Picture based subtitle format used on BDs/HD-DVDs
Duration : 2 h 3 min
Bit rate : 77.8 kb/s
Frame rate : 0.732 FPS
Count of elements : 5407
Stream size : 68.5 MiB (0%)
Title : 国配简体特效
Language : Chinese
Default : Yes
Forced : No
Original source medium : Blu-ray

Text #5
ID : 10
ID in the original source medium : 4613 (0x1205)
Format : PGS
Codec ID : S_HDMV/PGS
Codec ID/Info : Picture based subtitle format used on BDs/HD-DVDs
Duration : 2 h 3 min
Bit rate : 79.2 kb/s
Frame rate : 0.732 FPS
Count of elements : 5407
Stream size : 69.7 MiB (0%)
Title : 国配繁体特效
Language : Chinese
Default : Yes
Forced : No
Original source medium : Blu-ray

Text #6
ID : 11
ID in the original source medium : 4614 (0x1206)
Format : PGS
Codec ID : S_HDMV/PGS
Codec ID/Info : Picture based subtitle format used on BDs/HD-DVDs
Duration : 2 h 3 min
Bit rate : 96.7 kb/s
Frame rate : 0.690 FPS
Count of elements : 5101
Stream size : 85.2 MiB (0%)
Title : 简英特效
Language : Chinese
Default : Yes
Forced : No
Original source medium : Blu-ray

Text #7
ID : 12
ID in the original source medium : 4615 (0x1207)
Format : PGS
Codec ID : S_HDMV/PGS
Codec ID/Info : Picture based subtitle format used on BDs/HD-DVDs
Duration : 2 h 3 min
Bit rate : 98.1 kb/s
Frame rate : 0.690 FPS
Count of elements : 5101
Stream size : 86.4 MiB (0%)
Title : 繁英特效
Language : Chinese
Default : Yes
Forced : No
Original source medium : Blu-ray

Text #8
ID : 13
ID in the original source medium : 4616 (0x1208)
Format : PGS
Codec ID : S_HDMV/PGS
Codec ID/Info : Picture based subtitle format used on BDs/HD-DVDs
Duration : 1 h 55 min
Bit rate : 57.2 kb/s
Frame rate : 0.528 FPS
Count of elements : 3670
Stream size : 47.4 MiB (0%)
Title : 原盘导评英字
Language : English
Default : Yes
Forced : No
Original source medium : Blu-ray

Text #9
ID : 14
ID in the original source medium : 4618 (0x120A)
Format : PGS
Codec ID : S_HDMV/PGS
Codec ID/Info : Picture based subtitle format used on BDs/HD-DVDs
Duration : 2 h 2 min
Bit rate : 32.2 kb/s
Frame rate : 0.502 FPS
Count of elements : 3702
Stream size : 28.3 MiB (0%)
Title : 原盘导评粤语中字
Language : Chinese
Default : Yes
Forced : No
Original source medium : Blu-ray

Text #10
ID : 15
ID in the original source medium : 4619 (0x120B)
Format : PGS
Codec ID : S_HDMV/PGS
Codec ID/Info : Picture based subtitle format used on BDs/HD-DVDs
Duration : 2 h 2 min
Bit rate : 33.3 kb/s
Frame rate : 0.502 FPS
Count of elements : 3702
Stream size : 29.3 MiB (0%)
Title : 原盘导评繁体中文
Language : Chinese
Default : Yes
Forced : No
Original source medium : Blu-ray

Menu
00:00:00.000 : en:第 01 章
00:06:52.120 : en:第 02 章
00:14:07.888 : en:第 03 章
00:23:18.271 : en:第 04 章
00:29:38.026 : en:第 05 章
00:35:07.772 : en:第 06 章
00:44:08.437 : en:第 07 章
00:50:43.498 : en:第 08 章
00:56:18.625 : en:第 09 章
01:03:02.820 : en:第 10 章
01:11:17.398 : en:第 11 章
01:17:49.164 : en:第 12 章
01:27:03.051 : en:第 13 章
01:33:22.430 : en:第 14 章
01:40:51.795 : en:第 15 章
01:46:25.087 : en:第 16 章
01:52:49.888 : en:第 17 章


部分资源为软字幕,移动端推荐播放器:MxPlayer,nPlayer,infuse ,其他播放器请自行尝试。

部分资源为软字幕,电脑端推荐播放器:PotPlayer,完美解码,KMPLAYER,其他播放器请自行尝试。



1 个附件 售价 大小 下载 时间

Captain.Marvel.2019.V2.BluRay.1080p.DTS-HDMA7.1.x264-DreamHD[1LOU.ME].torrent 0 金币 54.72K 1302 次 1月前

#1楼
发帖时间:2024-02-29 08:01:01   |   回复数:0
游客组