Asuka601
隐世仙人♂

[2018] [其它] [剧情] [BD-1080P] 无主之作[中文字幕].Jan.Dara.Beginning.2012.BluRay.1080p.AAC.x264-DreamHD 4.00GB

-->

完整标题:无主之作[中文字幕].Jan.Dara.Beginning.2012.BluRay.1080p.AAC.x264-DreamHD 4.00GB



◎标  题 无主之作
◎译  名 Never Look Away / Work Without Author
◎片  名 Werk ohne Autor
◎年  代 2018
◎产  地 德国 / 意大利
◎类  别 剧情
◎语  言 德语 / 俄语
◎上映日期 2018-09-04(威尼斯电影节) / 2018-10-03(德国)
◎IMDb评分 7.7/10 (24547人评价)
◎IMDb链接 https://www.imdb.com/title/tt5311542/
◎豆瓣评分 8.6/10 (82279人评价)
◎豆瓣链接 https://movie.douban.com/subject/26701196/
◎片  长 189分钟
◎导  演 弗洛里安·亨克尔·冯·多纳斯马尔克 Florian Henckel von Donnersmarck
◎编  剧 弗洛里安·亨克尔·冯·多纳斯马尔克 Florian Henckel von Donnersmarck
◎演  员 汤姆·希林 Tom Schilling
      塞巴斯蒂安·科赫 Sebastian Koch
      葆拉·贝尔 Paula Beer
      莎斯琪亚·罗森道尔 Saskia Rosendahl
      奥利弗·马苏奇 Oliver Masucci
      叶甫根尼·希迪金 Yevgeni Sidikhin
      马克·扎克 Mark Zak
      乌尔里克·C·扎勒 Ulrike C. Tscharre
      巴斯蒂安·特罗斯特 Bastian Trost
      汉斯-尤韦·鲍尔 Hans-Uwe Bauer
      汉诺·科夫勒 Hanno Koffler
      辛纳克·勋纳曼 Hinnerk Schönemann
      詹妮特·海因 Jeanette Hain
      乔切·舒托夫 Jörg Schüttauf
      约翰娜·加斯多夫 Johanna Gastdorf
      弗罗里安·巴西奥罗麦 Florian Bartholomäi
      本·贝克 Ben Becker
      伊娜·韦斯 Ina Weisse
      拉斯·艾丁格 Lars Eidinger
      雅各布·马琛茨 Jacob Matschenz
      皮特·布科夫斯基 Pit Bukowski
      赖纳·博克 Rainer Bock
      约翰尼斯·艾麦亚 Johannes Allmayer
      米凯拉·卡斯帕 Michaela Caspar
      吕克·费特 Luc Feit
      安东尼娅·比尔 Antonia Bill
      克里斯·泰辛格 Chris Theisinger
      尤·波斯 Jörg Pose
      阿克塞尔·旺克 Axel Wandtke
      卡伊·科尔斯 Cai Cohrs
      汉尼斯·赫尔曼 Hannes Hellmann
      伊嘉·比肯费尔德 Inga Birkenfeld
      斯特凡·梅伦 Stefan Mehren
      曼弗雷德·马克 Manfred Möck
      卢茨·布洛赫伯格 Lutz Blochberger
      马丁·布鲁赫曼 Martin Bruchmann
      乔纳斯·达斯勒 Jonas Dassler
      伊娃·玛丽亚·约斯特 Eva Maria Jost

◎简  介
    库尔特(汤姆·希林 Tom Schilling 饰)的姨母曾经被关进过集中营,最终在纳粹医生卡尔(塞巴斯蒂安·科赫 Sebastian Koch 饰)的折磨下不幸死去。虽然库尔特幸运的在柏林墙建成之前逃往了西德,但他的整个童年时代都生活在纳粹的阴影之下,这给他的人格带来了极大的创伤。   之后,库尔特进入了杜塞道夫美术学院就读,无法走出过去阴影的他将内心的绝望和伤痛都挥洒在了画布之上。一次偶然中,库尔特邂逅了名为艾利(葆拉·贝尔 Paula Beer 饰)的女孩,美丽活泼的艾利渐渐的治愈了库尔特内心的伤痕,当两人鼓起勇气想要将关系再推进一步时,却遭到了艾利父亲的强烈反对。

点击图片可查看大图

软字幕无法在截图上展现,HDR版本/杜比视界版本截图会出现颜色异常,请使用支持的设备播放!

##### MediaInfo ######
General
Complete name : Jan.Dara.Beginning.2012.BluRay.1080p.AAC.x264-DreamHD.mp4
Duration : 2 h 16 min
Overall bit rate mode : Variable
Overall bit rate : 4 199 kb/s

Video
ID : 1
Format : AVC
Format/Info : Advanced Video Codec
Format profile : [email protected]
Format settings : CABAC / 4 Ref Frames
Format settings, CABAC : Yes
Format settings, Reference frames : 4 frames
Codec ID : avc1
Codec ID/Info : Advanced Video Coding
Duration : 2 h 16 min
Bit rate : 4 000 kb/s
Maximum bit rate : 32.6 Mb/s
Width : 1 920 pixels
Height : 1 080 pixels
Display aspect ratio : 16:9
Frame rate mode : Constant
Frame rate : 24.000 FPS
Color space : YUV
Chroma subsampling : 4:2:0
Bit depth : 8 bits
Scan type : Progressive
Bits/(Pixel*Frame) : 0.080
Stream size : 3.81 GiB (95%)
Writing library : x264 core 157 r2867+150 7e91e0e t_mod_Custom_2 [8-bit@all X86_64]
Encoding settings : cabac=1 / ref=4 / deblock=1:-3:-3 / analyse=0x1:0x131 / me=umh / subme=10 / psy=1 / fade_compensate=0.00 / psy_rd=1.00:0.15 / mixed_ref=1 / me_range=64 / chroma_me=1 / trellis=2 / 8x8dct=0 / cqm=0 / deadzone=21,11 / fast_pskip=0 / chroma_qp_offset=-3 / threads=34 / lookahead_threads=5 / sliced_threads=0 / nr=0 / decimate=1 / interlaced=0 / bluray_compat=0 / constrained_intra=0 / fgo=0 / bframes=8 / b_pyramid=2 / b_adapt=2 / b_bias=0 / direct=3 / weightb=1 / open_gop=0 / weightp=2 / keyint=300 / keyint_min=24 / scenecut=40 / intra_refresh=0 / rc_lookahead=60 / rc=2pass / mbtree=1 / bitrate=4000 / ratetol=1.0 / qcomp=0.60 / qpmin=0:0:0 / qpmax=69:69:69 / qpstep=4 / cplxblur=20.0 / qblur=0.5 / ip_ratio=1.40 / aq=2:1.00 / aq-sensitivity=10.00 / aq-factor=1.00:1.00:1.00 / aq2=0 / aq3=0
Encoded date : UTC 2024-02-27 22:01:01
Tagged date : UTC 2024-02-27 22:01:09
mdhd_Duration : 8182542
Codec configuration box : avcC

Audio
ID : 2
Format : AAC LC
Format/Info : Advanced Audio Codec Low Complexity
Codec ID : mp4a-40-2
Duration : 2 h 16 min
Bit rate mode : Variable
Bit rate : 192 kb/s
Maximum bit rate : 237 kb/s
Channel(s) : 2 channels
Channel layout : L R
Sampling rate : 48.0 kHz
Frame rate : 46.875 FPS (1024 SPF)
Compression mode : Lossy
Stream size : 191 MiB (5%)
Language : Thai
Default : Yes
Alternate group : 1
Encoded date : UTC 2024-02-27 22:01:08
Tagged date : UTC 2024-02-27 22:01:09

Menu


部分资源为软字幕,移动端推荐播放器:MxPlayer,nPlayer,infuse ,其他播放器请自行尝试。

部分资源为软字幕,电脑端推荐播放器:PotPlayer,完美解码,KMPLAYER,其他播放器请自行尝试。



1 个附件 售价 大小 下载 时间

Jan.Dara.Beginning.2012.BluRay.1080p.AAC.x264-DreamHD[1LOU.ME].torrent 0 金币 13.15K 1176 次 1月前

#1楼
发帖时间:2024-02-28 21:08:36   |   回复数:0
游客组