Asuka601
隐世仙人♂

[更 早] [其它] [剧情] [BD-4K] 末代皇帝[HDR/杜比视界双版本][国英多音轨/中文字幕/特效字幕].1987.V2.UHD.BluRay.REMUX.2160p.HEVC.DoVi.HDR.

-->

完整标题:末代皇帝[HDR/杜比视界双版本][国英多音轨/中文字幕/特效字幕].1987.V2.UHD.BluRay.REMUX.2160p.HEVC.DoVi.HDR.DTS-HD.MA5.1.2Audio-DreamHD 79.31GB



◎标  题 末代皇帝
◎译  名 末代皇帝溥仪(港) / L'ultimo imperatore / Le dernier empereur
◎片  名 The Last Emperor
◎年  代 1987
◎产  地 英国 / 意大利 / 中国大陆 / 法国
◎类  别 剧情 / 传记 / 历史
◎语  言 英语 / 汉语普通话 / 日语
◎上映日期 1987-10-04(东京国际电影节) / 1987-10-23(意大利)
◎IMDb评分 7.7/10 (109851人评价)
◎IMDb链接 https://www.imdb.com/title/tt0093389/
◎豆瓣评分 9.3/10 (912123人评价)
◎豆瓣链接 https://movie.douban.com/subject/1293172/
◎片  长 163分钟 / 210分钟(电视版)
◎导  演 贝纳尔多·贝托鲁奇 Bernardo Bertolucci
◎编  剧 贝纳尔多·贝托鲁奇 Bernardo Bertolucci
      马克·派普罗 Mark Peploe
      恩佐·温加里 Enzo Ungari
◎演  员 尊龙 John Lone
      陈冲 Joan Chen
      邬君梅 Vivian Wu
      彼得·奥图尔 Peter O'Toole
      英若诚 Ruocheng Ying
      吴涛 Tao Wu
      黄自强 Victor Wong
      丹尼斯·邓 Dennis Dun
      坂本龙一 Ryuichi Sakamoto
      马吉·汉 Maggie Han
      里克·扬 Ric Young
      田川洋行 Cary-Hiroyuki Tagawa
      苟杰德 Jade go
      理查德·吴 Richard Vuu
      皱缇格 Tsou Tijger
      陈凯歌 Kaige Chen
      卢燕 Lisa Lu
      区亨利 Henry O
      陈述 Shu Chen
      鲍皓昕 Basil Pao
      黄文捷 Wenjie Huang
      邵茹贞 Ruzhen Shao
      亨利·基 Henry Kyi
      张良斌 Liangbin Zhang
      梁冬 Dong Liang
      康斯坦丁·格雷戈里 Constantine Gregory
      黄汉琪 Lucia Hwong
      王涛 Tao Wang
      宋怀桂 Huaikuei Soong
      蔡鸿翔 Hongxiang Cai
      程淑艳 Shuyan Cheng
      张天民 Tianmin Zhang
      王彪 Biao Wang
      劳力 Li Lao
      户田惠子 Keiko Toda
      石凉 Liang Shi

◎简  介
    溥仪(尊龙 饰)的一生在电影中娓娓道来。他从三岁起登基,年幼的眼光中只有大臣身上的一只蝈蝈,江山在他心中只是一个不明所以的名词。长大了,他以为可以变革,却被太监一把火烧了朝廷账本。他以为自己是大清江山的主人,却做了日本人的傀儡。   解放后,他坐上了从苏联回来的火车,身边是押送监视他的解放军。他猜测自己难逃一死,便躲在狭小的卫生间里,割脉自杀。然而他没有死在火车上,命运的嘲笑还在等着他。文革的风风雨雨,在他身上留下了斑斑伤痕。

点击图片可查看大图

软字幕无法在截图上展现,HDR版本/杜比视界版本截图会出现颜色异常,请使用支持的设备播放!

##### MediaInfo ######
General
Unique ID : 298979935434222214215831885348312154763 (0xE0ED70E82728986DCD32875B74BB828B)
Complete name : The.Last.Emperor.1987.V2.UHD.BluRay.REMUX.2160p.HEVC.DoVi.HDR.DTS-HD.MA5.1.2Audio-DreamHD.mkv
Duration : 2 h 42 min
Overall bit rate mode : Variable
Overall bit rate : 69.7 Mb/s

Video
ID : 1
ID in the original source medium : 4113 (0x1011)
Format : HEVC
Format/Info : High Efficiency Video Coding
Format profile : Main [email protected]@High
HDR format : Dolby Vision, Version 1.0, dvhe.07.06, BL+EL+RPU, Blu-ray compatible / SMPTE ST 2086, HDR10 compatible
Codec ID : V_MPEGH/ISO/HEVC
Duration : 2 h 42 min
Bit rate : 67.2 Mb/s
Width : 3 840 pixels
Height : 2 160 pixels
Display aspect ratio : 16:9
Frame rate mode : Constant
Frame rate : 23.976 (24000/1001) FPS
Color space : YUV
Chroma subsampling : 4:2:0 (Type 2)
Bit depth : 10 bits
Bits/(Pixel*Frame) : 0.338
Stream size : 76.5 GiB (96%)
Language : English
Default : No
Forced : No
Color range : Limited
Color primaries : BT.2020
Transfer characteristics : PQ
Matrix coefficients : BT.2020 non-constant
Mastering display color primaries : BT.2020
Mastering display luminance : min: 0.0001 cd/m2, max: 1000 cd/m2
Original source medium : Blu-ray

Audio #1
ID : 2
ID in the original source medium : 4352 (0x1100)
Format : DTS XLL
Format/Info : Digital Theater Systems
Commercial name : DTS-HD Master Audio
Codec ID : A_DTS
Duration : 2 h 42 min
Bit rate mode : Variable
Bit rate : 1 656 kb/s
Channel(s) : 2 channels
Channel layout : L R
Sampling rate : 48.0 kHz
Frame rate : 93.750 FPS (512 SPF)
Bit depth : 24 bits
Compression mode : Lossless
Stream size : 1.88 GiB (2%)
Title : 立体声
Language : English
Default : Yes
Forced : No
Original source medium : Blu-ray

Audio #2
ID : 3
ID in the original source medium : 4354 (0x1102)
Format : AC-3
Format/Info : Audio Coding 3
Commercial name : Dolby Digital
Codec ID : A_AC3
Duration : 2 h 42 min
Bit rate mode : Constant
Bit rate : 640 kb/s
Channel(s) : 2 channels
Channel layout : L R
Sampling rate : 48.0 kHz
Frame rate : 31.250 FPS (1536 SPF)
Compression mode : Lossy
Stream size : 746 MiB (1%)
Title : 立体声
Language : Chinese
Service kind : Complete Main
Default : No
Forced : No
Original source medium : Blu-ray

Text #1
ID : 4
ID in the original source medium : 4768 (0x12A0)
Format : PGS
Codec ID : S_HDMV/PGS
Codec ID/Info : Picture based subtitle format used on BDs/HD-DVDs
Duration : 2 h 38 min
Bit rate : 25.0 kb/s
Frame rate : 0.275 FPS
Count of elements : 2620
Stream size : 28.5 MiB (0%)
Language : English
Default : Yes
Forced : No
Original source medium : Blu-ray

Text #2
ID : 5
ID in the original source medium : 4769 (0x12A1)
Format : PGS
Codec ID : S_HDMV/PGS
Codec ID/Info : Picture based subtitle format used on BDs/HD-DVDs
Duration : 2 h 38 min
Bit rate : 32.2 kb/s
Frame rate : 0.411 FPS
Count of elements : 3921
Stream size : 36.6 MiB (0%)
Language : Chinese
Default : No
Forced : No
Original source medium : Blu-ray

Text #3
ID : 6
ID in the original source medium : 4770 (0x12A2)
Format : PGS
Codec ID : S_HDMV/PGS
Codec ID/Info : Picture based subtitle format used on BDs/HD-DVDs
Duration : 2 h 38 min
Bit rate : 33.2 kb/s
Frame rate : 0.411 FPS
Count of elements : 3921
Stream size : 37.7 MiB (0%)
Language : Chinese
Default : No
Forced : No
Original source medium : Blu-ray

Text #4
ID : 7
ID in the original source medium : 4771 (0x12A3)
Format : PGS
Codec ID : S_HDMV/PGS
Codec ID/Info : Picture based subtitle format used on BDs/HD-DVDs
Duration : 2 h 38 min
Bit rate : 43.6 kb/s
Frame rate : 0.410 FPS
Count of elements : 3905
Stream size : 49.6 MiB (0%)
Language : Chinese
Default : No
Forced : No
Original source medium : Blu-ray

Text #5
ID : 8
ID in the original source medium : 4772 (0x12A4)
Format : PGS
Codec ID : S_HDMV/PGS
Codec ID/Info : Picture based subtitle format used on BDs/HD-DVDs
Duration : 2 h 38 min
Bit rate : 44.6 kb/s
Frame rate : 0.410 FPS
Count of elements : 3905
Stream size : 50.7 MiB (0%)
Language : Chinese
Default : No
Forced : No
Original source medium : Blu-ray

Menu
00:00:00.000 : en:Chapter 01
00:13:57.545 : en:Chapter 02
00:23:13.975 : en:Chapter 03
00:37:00.760 : en:Chapter 04
00:52:02.244 : en:Chapter 05
01:03:04.238 : en:Chapter 06
01:21:43.523 : en:Chapter 07
01:34:47.264 : en:Chapter 08
01:50:18.528 : en:Chapter 09
02:04:56.655 : en:Chapter 10
02:14:52.292 : en:Chapter 11
02:29:33.756 : en:Chapter 12


部分资源为软字幕,移动端推荐播放器:MxPlayer,nPlayer,infuse ,其他播放器请自行尝试。

部分资源为软字幕,电脑端推荐播放器:PotPlayer,完美解码,KMPLAYER,其他播放器请自行尝试。



1 个附件 售价 大小 下载 时间

1987.V2.UHD.BluRay.REMUX.2160p.HEVC.DoVi.HDR.DTS-HD.MA5.1.2Audio-DreamHD[1LOU.ME].torrent 0 金币 201.46K 4214 次 1月前

#1楼
发帖时间:2024-02-28 08:55:29   |   回复数:0
游客组