Asuka601
隐世仙人♂

[2022] [其它] [动作] [BD-1080P] 巢穴[中文字幕].The.Lair.2022.BluRay.REMUX.1080p.AVC.DTS-HD.MA5.1-DreamHD 16.27GB

-->

完整标题:巢穴[中文字幕].The.Lair.2022.BluRay.REMUX.1080p.AVC.DTS-HD.MA5.1-DreamHD 16.27GB



◎标  题 巢穴
◎片  名 The Lair
◎年  代 2022
◎产  地 英国
◎类  别 动作 / 恐怖
◎语  言 英语
◎上映日期 2022-10-07(锡切斯国际奇幻电影节) / 2022-10-28(美国网络)
◎IMDb评分 4.6/10 (4847人评价)
◎IMDb链接 https://www.imdb.com/title/tt13468602/
◎豆瓣评分 4.6/10 (1610人评价)
◎豆瓣链接 https://movie.douban.com/subject/35555003/
◎片  长 90分钟
◎导  演 尼尔·马歇尔 Neil Marshall
◎编  剧 尼尔·马歇尔 Neil Marshall
◎演  员 夏洛特·柯克 Charlotte Kirk
      乔纳森·霍华德 Jonathan Howard
      吉米·巴姆博 Jamie Bamber
      里昂·奥肯登 Leon Ockenden
      马克·斯特潘 Mark Strepan
      哈里·陶乐西 Harry Taurasi
      亚当·邦德 Adam Bond

◎简  介
    On her final combat mission across the rugged mountains of Afghanistan, Royal Air Force fighter pilot Lt. Kate Sinclair’s jet is shot down over one of the most dangerous rebel strongholds. When insurgents come after her at the crash site, she finds refuge in a long since abandoned underground bunker. After tracking Sinclair into the depths of the bunker, the insurgents accidentally awaken a man-made deadly biological weapon known as the Ravagers - half human, half alien and hungry for human flesh. Terrified, she watches the creatures rip apart the men pursuing her. Sinclair barely escapes and is picked up by a US army patrol sent to find her. Major Roy Finch, commander of the local US army outpost ‘Fort Apache’, and his ragtag squad of brave soldiers have a difficult time believing mutant monsters have been kept hidden in these mountains. Unaware that she has been tracked to their base, dozens of the vicious creatures are already swarming towards them.

##### MediaInfo ######
General
Unique ID : 307524713980088681929183059712958415115 (0xE75B1B03F87C63A738E2B6122D16410B)
Complete name : The.Lair.2022.BluRay.REMUX.1080p.AVC.DTS-HD.MA5.1-DreamHD.mkv
Duration : 1 h 37 min
Overall bit rate mode : Variable
Overall bit rate : 24.0 Mb/s

Video
ID : 1
ID in the original source medium : 4113 (0x1011)
Format : AVC
Format/Info : Advanced Video Codec
Format profile : [email protected]
Format settings : CABAC / 4 Ref Frames
Format settings, CABAC : Yes
Format settings, Reference frames : 4 frames
Codec ID : V_MPEG4/ISO/AVC
Duration : 1 h 37 min
Bit rate mode : Variable
Bit rate : 21.9 Mb/s
Maximum bit rate : 38.0 Mb/s
Width : 1 920 pixels
Height : 1 080 pixels
Display aspect ratio : 16:9
Frame rate mode : Constant
Frame rate : 23.976 (24000/1001) FPS
Color space : YUV
Chroma subsampling : 4:2:0
Bit depth : 8 bits
Scan type : Progressive
Bits/(Pixel*Frame) : 0.441
Stream size : 14.9 GiB (91%)
Default : Yes
Forced : No
Original source medium : Blu-ray

Audio
ID : 2
ID in the original source medium : 4352 (0x1100)
Format : DTS XLL
Format/Info : Digital Theater Systems
Commercial name : DTS-HD Master Audio
Codec ID : A_DTS
Duration : 1 h 37 min
Bit rate mode : Variable
Bit rate : 1 993 kb/s
Channel(s) : 6 channels
Channel layout : C L R Ls Rs LFE
Sampling rate : 48.0 kHz
Frame rate : 93.750 FPS (512 SPF)
Bit depth : 16 bits
Compression mode : Lossless
Stream size : 1.35 GiB (8%)
Language : English
Default : Yes
Forced : No
Original source medium : Blu-ray

Text #1
ID : 3
ID in the original source medium : 4608 (0x1200)
Format : PGS
Muxing mode : zlib
Codec ID : S_HDMV/PGS
Codec ID/Info : Picture based subtitle format used on BDs/HD-DVDs
Duration : 1 h 34 min
Bit rate : 34.2 kb/s
Frame rate : 0.437 FPS
Count of elements : 2468
Stream size : 23.0 MiB (0%)
Language : English
Default : Yes
Forced : No
Original source medium : Blu-ray

Text #2
ID : 4
ID in the original source medium : 4611 (0x1203)
Format : PGS
Muxing mode : zlib
Codec ID : S_HDMV/PGS
Codec ID/Info : Picture based subtitle format used on BDs/HD-DVDs
Duration : 1 h 30 min
Bit rate : 17.8 kb/s
Frame rate : 0.361 FPS
Count of elements : 1954
Stream size : 11.5 MiB (0%)
Language : Chinese
Default : Yes
Forced : No
Original source medium : Blu-ray

Text #3
ID : 5
ID in the original source medium : 4612 (0x1204)
Format : PGS
Muxing mode : zlib
Codec ID : S_HDMV/PGS
Codec ID/Info : Picture based subtitle format used on BDs/HD-DVDs
Duration : 1 h 30 min
Bit rate : 18.3 kb/s
Frame rate : 0.361 FPS
Count of elements : 1954
Stream size : 11.8 MiB (0%)
Language : Chinese
Default : Yes
Forced : No
Original source medium : Blu-ray

Text #4
ID : 6
ID in the original source medium : 4613 (0x1205)
Format : PGS
Muxing mode : zlib
Codec ID : S_HDMV/PGS
Codec ID/Info : Picture based subtitle format used on BDs/HD-DVDs
Duration : 1 h 30 min
Bit rate : 31.8 kb/s
Frame rate : 0.361 FPS
Count of elements : 1954
Stream size : 20.5 MiB (0%)
Language : Chinese
Default : Yes
Forced : No
Original source medium : Blu-ray

Text #5
ID : 7
ID in the original source medium : 4614 (0x1206)
Format : PGS
Muxing mode : zlib
Codec ID : S_HDMV/PGS
Codec ID/Info : Picture based subtitle format used on BDs/HD-DVDs
Duration : 1 h 30 min
Bit rate : 32.2 kb/s
Frame rate : 0.361 FPS
Count of elements : 1954
Stream size : 20.8 MiB (0%)
Language : Chinese
Default : Yes
Forced : No
Original source medium : Blu-ray

Menu
00:00:00.000 : en:Chapter 01
00:09:57.597 : en:Chapter 02
00:19:18.073 : en:Chapter 03
00:32:45.588 : en:Chapter 04
00:39:41.587 : en:Chapter 05
00:53:33.335 : en:Chapter 06
01:04:31.784 : en:Chapter 07
01:15:10.214 : en:Chapter 08
01:26:57.086 : en:Chapter 09


部分资源为软字幕,移动端推荐播放器:MxPlayer,nPlayer,infuse ,其他播放器请自行尝试。

部分资源为软字幕,电脑端推荐播放器:PotPlayer,完美解码,KMPLAYER,其他播放器请自行尝试。



1 个附件 售价 大小 下载 时间

The.Lair.2022.BluRay.REMUX.1080p.AVC.DTS-HD.MA5.1-DreamHD[1LOU.ME].torrent 0 金币 43.73K 1596 次 1月前

#1楼
发帖时间:2024-02-28 08:53:18   |   回复数:0
游客组