Asuka601
隐世仙人♂

[更 早] [日本] [剧情] [BD-1080P] 犬神家族[中文字幕].The.Inugami.Family.1976.BluRay.REMUX.1080p.AVC.LPCM2.0-DreamHD 40.47G

-->

完整标题:犬神家族[中文字幕].The.Inugami.Family.1976.BluRay.REMUX.1080p.AVC.LPCM2.0-DreamHD 40.47GB



◎标  题 犬神家族
◎译  名 Inugamike no ichizoku / The Clan of Dog-God Household / The Inugami Family
◎片  名 犬神家の一族
◎年  代 1976
◎产  地 日本
◎类  别 剧情 / 悬疑 / 恐怖
◎语  言 日语
◎上映日期 1976-10-16(日本)
◎IMDb评分 7.1/10 (1034人评价)
◎IMDb链接 https://www.imdb.com/title/tt0074691/
◎豆瓣评分 7.7/10 (2800人评价)
◎豆瓣链接 https://movie.douban.com/subject/1729037/
◎片  长 146分钟
◎导  演 市川昆 Kon Ichikawa
◎编  剧 日高真也 Shinya Hidaka
      市川昆 Kon Ichikawa
      横沟正史 Seishi Yokomizo
      长田纪生 Norio Osada
◎演  员 石坂浩二 Kôji Ishizaka
      岛田阳子 Yôko Shimada
      青井辉彦 Teruhiko Aoi
      高峰三枝子 Mieko Takamine
      草笛光子 Mitsuko Kusabue
      三条美纪 Miki Sanjo
      川口晶 Akira Kawaguchi
      坂口良子 Ryoko Sakaguchi
      地井武男 Takeo Chii
      川口恒 Hisashi Kawaguchi
      小林昭二 Akiji Kobayashi
      三谷升 Noboru Mitani
      寺田稔 Minoru Terada
      辻万长 Kazunaga Tsuji
      佳那晃子 Akiko Kana
      原泉 Sen Hara
      大泷秀治 Hideji Ôtaki
      金田龙之介 Ryunosuke Kaneda
      加藤武 Takeshi Katô
      横沟正史 Seishi Yokomizo
      三木纪平 Norihei Miki
      岸田今日子 Kyôko Kishida
      小泽荣太郎 Eitarô Ozawa
      三国连太郎 Rentarô Mikuni
      角川春树 Haruki Kadokawa
      三矢雄二 Yûji Mitsuya

◎简  介
    犬神制药创始人犬神佐兵卫(三国连太郎 饰)一生不曾娶妻,却有三个女儿松子(高峰三枝子 饰)、竹子(三条美纪 饰)、梅子(草笛光子 饰),另收养恩人野野宫大式孙女珠世(岛田阳子 饰)为义女。犬神生前留有遗书,规定三女只能继承遗产极少部分,多数遗产由珠世获得,然珠世需同犬神三 个孙子中的一个婚配方可继承。犬神家顾问律师嗅到遗产之争背后的血腥气息,从东京请来名侦探金田一耕助(石坂浩二)协助调查。   佐兵卫亲眷集结一起,等待遗嘱宣读。长孙佐清(あおい輝彦 饰)亦从前线战场退役归来,然其面目被毁,终日头戴面具,引起除其母松子之外其他亲人怀疑。佐武(地井武男 饰)与佐智(川口恒 饰)一面调查佐清真实身份,一面向珠世展开情感攻势,但最后皆离奇死亡。   随着死亡增加和调查深入,金田一逐渐发现犬神家辉煌背后诸多不为人知的秘密,真相渐渐浮出水面……

点击图片可查看大图

软字幕无法在截图上展现,HDR版本/杜比视界版本截图会出现颜色异常,请使用支持的设备播放!

##### MediaInfo ######
General
Unique ID : 153478760008889639894246265700526703937 (0x7376EF18D85075A59897B56829D9C541)
Complete name : The.Inugami.Family.1976.BluRay.REMUX.1080p.AVC.LPCM2.0-DreamHD.mkv
Duration : 2 h 26 min
Overall bit rate mode : Variable
Overall bit rate : 39.6 Mb/s

Video
ID : 1
ID in the original source medium : 4113 (0x1011)
Format : AVC
Format/Info : Advanced Video Codec
Format profile : [email protected]
Format settings : CABAC / 4 Ref Frames
Format settings, CABAC : Yes
Format settings, Reference frames : 4 frames
Codec ID : V_MPEG4/ISO/AVC
Duration : 2 h 26 min
Bit rate mode : Variable
Bit rate : 37.3 Mb/s
Maximum bit rate : 40.0 Mb/s
Width : 1 920 pixels
Height : 1 080 pixels
Display aspect ratio : 16:9
Frame rate mode : Constant
Frame rate : 23.976 (24000/1001) FPS
Color space : YUV
Chroma subsampling : 4:2:0
Bit depth : 8 bits
Scan type : Progressive
Bits/(Pixel*Frame) : 0.749
Stream size : 38.0 GiB (94%)
Language : English
Default : No
Forced : No
Original source medium : Blu-ray

Audio
ID : 2
ID in the original source medium : 4352 (0x1100)
Format : PCM
Format settings : Little / Signed
Codec ID : A_PCM/INT/LIT
Duration : 2 h 26 min
Bit rate mode : Constant
Bit rate : 2 304 kb/s
Channel(s) : 2 channels
Sampling rate : 48.0 kHz
Frame rate : 30.000 FPS (1600 SPF)
Bit depth : 24 bits
Stream size : 2.35 GiB (6%)
Title : 立体声
Language : Japanese
Default : Yes
Forced : No
Original source medium : Blu-ray

Text #1
ID : 3
ID in the original source medium : 4609 (0x1201)
Format : PGS
Codec ID : S_HDMV/PGS
Codec ID/Info : Picture based subtitle format used on BDs/HD-DVDs
Duration : 2 h 26 min
Bit rate : 30.0 kb/s
Frame rate : 0.385 FPS
Count of elements : 3372
Stream size : 31.3 MiB (0%)
Language : English
Default : Yes
Forced : No
Original source medium : Blu-ray

Text #2
ID : 4
ID in the original source medium : 4610 (0x1202)
Format : PGS
Codec ID : S_HDMV/PGS
Codec ID/Info : Picture based subtitle format used on BDs/HD-DVDs
Duration : 2 h 24 min
Bit rate : 18.4 kb/s
Frame rate : 0.356 FPS
Count of elements : 3083
Stream size : 19.0 MiB (0%)
Language : Chinese
Default : No
Forced : No
Original source medium : Blu-ray

Text #3
ID : 5
ID in the original source medium : 4611 (0x1203)
Format : PGS
Codec ID : S_HDMV/PGS
Codec ID/Info : Picture based subtitle format used on BDs/HD-DVDs
Duration : 2 h 24 min
Bit rate : 20.8 kb/s
Frame rate : 0.356 FPS
Count of elements : 3083
Stream size : 21.5 MiB (0%)
Language : Chinese
Default : No
Forced : No
Original source medium : Blu-ray

Menu
00:00:00.000 : ja:章节 01
00:05:41.257 : ja:章节 02
00:17:08.777 : ja:章节 03
00:23:11.681 : ja:章节 04
00:36:17.383 : ja:章节 05
00:43:39.533 : ja:章节 06
00:48:15.058 : ja:章节 07
00:57:08.007 : ja:章节 08
01:07:48.898 : ja:章节 09
01:12:13.203 : ja:章节 10
01:20:02.798 : ja:章节 11
01:27:31.496 : ja:章节 12
01:32:54.235 : ja:章节 13
01:40:10.004 : ja:章节 14
01:46:56.618 : ja:章节 15
01:59:11.477 : ja:章节 16
02:10:46.129 : ja:章节 17
02:22:25.703 : ja:章节 18
02:26:11.512 : ja:章节 19


部分资源为软字幕,移动端推荐播放器:MxPlayer,nPlayer,infuse ,其他播放器请自行尝试。

部分资源为软字幕,电脑端推荐播放器:PotPlayer,完美解码,KMPLAYER,其他播放器请自行尝试。



1 个附件 售价 大小 下载 时间

The.Inugami.Family.1976.BluRay.REMUX.1080p.AVC.LPCM2.0-DreamHD[1LOU.ME].torrent 0 金币 104.26K 1302 次 1月前

#1楼
发帖时间:2024-02-28 08:50:51   |   回复数:1
亚瑟王
一派掌门
谢谢楼主分享
1月前 #2楼
游客组