Asuka601
隐世仙人♂

[2023] [韩国] [剧情] [BD-1080P] 千博士驱魔研究所[简繁英字幕].Dr.Cheon.and.Lost.Talisman.2023.BluRay.1080p.DTS-HDMA5.1.x264-Dr

-->

完整标题:千博士驱魔研究所[简繁英字幕].Dr.Cheon.and.Lost.Talisman.2023.BluRay.1080p.DTS-HDMA5.1.x264-DreamHD 11.25GB



◎标  题 千博士驱魔研究所
◎译  名 附身 / 千博士和消失的雪景 / Dr. Cheon and Lost Talisma
◎片  名 천박사 퇴마 연구소: 설경의 비밀
◎年  代 2023
◎产  地 韩国
◎类  别 剧情 / 惊悚
◎语  言 韩语
◎上映日期 2023-09-27(韩国)
◎IMDb评分 5.9/10 (498人评价)
◎IMDb链接 https://www.imdb.com/title/tt29005755/
◎豆瓣评分 5.8/10 (3462人评价)
◎豆瓣链接 https://movie.douban.com/subject/35805804/
◎片  长 98分钟
◎导  演 金成植 Seong-sik Kim
◎演  员 姜栋元 Dong-won Kang
      许峻豪 Jun-ho Heo
      李絮 Esom E.
      李东辉 Dong-Hwi Lee
      赵怡贤 Yi-hyun Cho
      李姃垠 Jung-eun Lee
      金智秀 Ji-soo Kim
      金钟秀 Jong-soo Kim
      朴明勋 Myeong-hoon Park
      朴正民 Jeong-min Park
      朴昭怡 So-i Park

◎简  介
    电影《千博士驱魔研究所》改编自同名网漫,讲述虽然听不到鬼,但凭借鬼般的洞察力解决各种事件的假驱魔师"千博士"(姜栋元 饰)受到从未经历过的强烈附身事件的委托而开始的故事。   《千博士驱魔研究所》由制作了《老手》《Exit》《摩加迪沙》的外柔内刚公司制作,这也是曾担任《分手的决心》《寄生虫》《惟愿从邪恶中拯救我》助理导演的金成植的长片处女作。

点击图片可查看大图

软字幕无法在截图上展现,HDR版本/杜比视界版本截图会出现颜色异常,请使用支持的设备播放!

##### MediaInfo ######
General
Unique ID : 23268995087446556098020117779727014593 (0x1181720873C76F1D4326BC9948145AC1)
Complete name : Dr.Cheon.and.Lost.Talisman.2023.BluRay.1080p.DTS-HDMA5.1.x264-DreamHD.mkv
Duration : 1 h 38 min
Overall bit rate mode : Variable
Overall bit rate : 16.4 Mb/s

Video
ID : 1
Format : AVC
Format/Info : Advanced Video Codec
Format profile : [email protected]
Format settings : CABAC / 4 Ref Frames
Format settings, CABAC : Yes
Format settings, Reference frames : 4 frames
Codec ID : V_MPEG4/ISO/AVC
Duration : 1 h 38 min
Bit rate : 14.0 Mb/s
Width : 1 920 pixels
Height : 804 pixels
Display aspect ratio : 2.40:1
Frame rate mode : Constant
Frame rate : 23.976 (24000/1001) FPS
Color space : YUV
Chroma subsampling : 4:2:0
Bit depth : 8 bits
Scan type : Progressive
Bits/(Pixel*Frame) : 0.377
Stream size : 9.60 GiB (85%)
Writing library : x264 core 157 r2867+150 7e91e0e t_mod_Custom_2 [8-bit@all X86_64]
Encoding settings : cabac=1 / ref=4 / deblock=1:-3:-3 / analyse=0x3:0x133 / me=umh / subme=11 / psy=1 / fade_compensate=0.00 / psy_rd=0.90:0.10 / mixed_ref=1 / me_range=64 / chroma_me=1 / trellis=2 / 8x8dct=1 / cqm=0 / deadzone=21,11 / fast_pskip=0 / chroma_qp_offset=-4 / threads=25 / lookahead_threads=4 / sliced_threads=0 / nr=0 / decimate=1 / interlaced=0 / bluray_compat=0 / constrained_intra=0 / fgo=0 / bframes=8 / b_pyramid=2 / b_adapt=2 / b_bias=0 / direct=3 / weightb=1 / open_gop=0 / weightp=2 / keyint=250 / keyint_min=23 / scenecut=40 / intra_refresh=0 / rc_lookahead=60 / rc=crf / mbtree=0 / crf=18.0000 / qcomp=0.70 / qpmin=0:0:0 / qpmax=69:69:69 / qpstep=4 / vbv_maxrate=35000 / vbv_bufsize=35000 / crf_max=0.0 / nal_hrd=none / filler=0 / ip_ratio=1.40 / pb_ratio=1.30 / aq=3:1.00 / aq-sensitivity=10.00 / aq-factor=1.00:1.00:1.00 / aq2=0 / aq3=0
Language : English
Default : Yes
Forced : No

Audio
ID : 2
ID in the original source medium : 4352 (0x1100)
Format : DTS XLL
Format/Info : Digital Theater Systems
Commercial name : DTS-HD Master Audio
Codec ID : A_DTS
Duration : 1 h 38 min
Bit rate mode : Variable
Bit rate : 2 359 kb/s
Channel(s) : 6 channels
Channel layout : C L R Ls Rs LFE
Sampling rate : 48.0 kHz
Frame rate : 93.750 FPS (512 SPF)
Bit depth : 16 bits
Compression mode : Lossless
Stream size : 1.62 GiB (14%)
Language : Korean
Default : Yes
Forced : No
Original source medium : Blu-ray

Text #1
ID : 3
Format : PGS
Muxing mode : zlib
Codec ID : S_HDMV/PGS
Codec ID/Info : Picture based subtitle format used on BDs/HD-DVDs
Duration : 1 h 34 min
Bit rate : 26.7 kb/s
Frame rate : 0.303 FPS
Count of elements : 1714
Stream size : 18.0 MiB (0%)
Title : CHS
Language : Chinese
Default : Yes
Forced : No

Text #2
ID : 4
Format : PGS
Muxing mode : zlib
Codec ID : S_HDMV/PGS
Codec ID/Info : Picture based subtitle format used on BDs/HD-DVDs
Duration : 1 h 34 min
Bit rate : 27.2 kb/s
Frame rate : 0.303 FPS
Count of elements : 1714
Stream size : 18.3 MiB (0%)
Title : CHT
Language : Chinese
Default : No
Forced : No

Text #3
ID : 5
ID in the original source medium : 4608 (0x1200)
Format : PGS
Muxing mode : zlib
Codec ID : S_HDMV/PGS
Codec ID/Info : Picture based subtitle format used on BDs/HD-DVDs
Duration : 1 h 34 min
Bit rate : 21.5 kb/s
Frame rate : 0.278 FPS
Count of elements : 1572
Stream size : 14.5 MiB (0%)
Title : ENG
Language : English
Default : No
Forced : No
Original source medium : Blu-ray

Menu
00:00:00.000 : 第 01 章
00:11:02.078 : 第 02 章
00:20:58.924 : 第 03 章
00:30:55.979 : 第 04 章
00:40:42.898 : 第 05 章
00:50:20.767 : 第 06 章
00:59:34.779 : 第 07 章
01:09:00.261 : 第 08 章
01:18:52.894 : 第 09 章
01:26:52.415 : 第 10 章


部分资源为软字幕,移动端推荐播放器:MxPlayer,nPlayer,infuse ,其他播放器请自行尝试。

部分资源为软字幕,电脑端推荐播放器:PotPlayer,完美解码,KMPLAYER,其他播放器请自行尝试。



1 个附件 售价 大小 下载 时间

Dr.Cheon.and.Lost.Talisman.2023.BluRay.1080p.DTS-HDMA5.1.x264-DreamHD[1LOU.ME].torrent 0 金币 31.35K 2667 次 1月前

#1楼
发帖时间:2024-02-26 13:37:21   |   回复数:1
liyouchai
隐世仙人♂
谢谢楼主分享资源
1月前 #2楼
游客组