Asuka601
隐世仙人♂

[更 早] [印度] [剧情] [BD-1080P] 大树之歌[简繁英字幕].Apur.Sansar.1959.BluRay.1080p.LPCM1.0.x264-DreamHD 9.81GB

-->

完整标题:大树之歌[简繁英字幕].Apur.Sansar.1959.BluRay.1080p.LPCM1.0.x264-DreamHD 9.81GB



◎标  题 大树之歌
◎译  名 阿塔的世界 / 阿菩的世界 / 阿普的世界 / Apur Sansar / The World of Apu
◎片  名 অপুর সংসার
◎年  代 1959
◎产  地 印度
◎类  别 剧情
◎语  言 孟加拉语
◎上映日期 1959-05-01
◎IMDb评分 8.5/10 (16195人评价)
◎IMDb链接 https://www.imdb.com/title/tt0052572/
◎豆瓣评分 8.7/10 (5014人评价)
◎豆瓣链接 https://movie.douban.com/subject/1295720/
◎片  长 105 分钟
◎导  演 萨蒂亚吉特·雷伊 Satyajit Ray
◎编  剧 萨蒂亚吉特·雷伊 Satyajit Ray
◎演  员 松米特拉·查特吉 Soumitra Chatterjee
      莎米拉·泰戈尔 Sharmila Tagore
      阿洛克·查克拉瓦蒂 Alok Chakravarty
      斯瓦潘·慕克吉 Swapan Mukherjee

◎简  介
    本片是阿普三部曲(大路之歌、不屈者、阿普的世界),第一部是与生长的地方的联系,第二部是与父母的联系(在第二部里,阿普的父母相继弃他而去),第三部是与爱人和孩子的联系。全片最突出的地方,是以一位不满十岁的少年的视线界来观赏人类与大自然生活的共通性。   “阿普三部曲”奠定了萨雅吉雷在印度电影发展史上崇高艺术地位。 萨雅吉雷的电影是很难定位他的电影类别及风格。但可确定的是他的电影是印度传世经典之作,具有文学艺术价值,他具有普世价值的电影故事,永远深值人心。   日本名导演黑泽明(Akira Kurosawa)对.萨雅吉雷有极中肯的评价:如果我们泠静深沈的观察,了解人类对爱的演进,在萨雅吉雷的电影中你必有所感动和共呜,.萨雅吉雷电影是电影工业的指标。   印度电影大师萨蒂亚吉特·雷伊的《阿普三部曲》,曾荣获戛纳电影节最佳人文纪录片奖。三部电影每一部都自成佳作,它们以朴素、强烈的感情和视觉上的独特美感给人以心灵上的震撼,从而确立了Ray在世界顶尖导演中的地位。

##### MediaInfo ######
General
Unique ID : 86305378857847242755165596841426346776 (0x40EDCFB4A8EF34CDAD4EEE9F2350E318)
Complete name : Apur.Sansar.1959.BluRay.1080p.LPCM1.0.x264-DreamHD.mkv
Duration : 1 h 46 min
Overall bit rate : 13.2 Mb/s

Video
ID : 1
Format : AVC
Format/Info : Advanced Video Codec
Format profile : [email protected]
Format settings : CABAC / 5 Ref Frames
Format settings, CABAC : Yes
Format settings, Reference frames : 5 frames
Codec ID : V_MPEG4/ISO/AVC
Duration : 1 h 46 min
Bit rate : 12.0 Mb/s
Width : 1 480 pixels
Height : 1 080 pixels
Display aspect ratio : 1.370
Frame rate mode : Constant
Frame rate : 23.976 (24000/1001) FPS
Color space : YUV
Chroma subsampling : 4:2:0
Bit depth : 8 bits
Scan type : Progressive
Bits/(Pixel*Frame) : 0.313
Stream size : 8.91 GiB (91%)
Writing library : x264 core 164 r3106 eaa68fa
Encoding settings : cabac=1 / ref=5 / deblock=1:-3:-3 / analyse=0x3:0x133 / me=umh / subme=11 / psy=1 / psy_rd=1.00:0.00 / mixed_ref=1 / me_range=64 / chroma_me=1 / trellis=2 / 8x8dct=1 / cqm=0 / deadzone=21,11 / fast_pskip=0 / chroma_qp_offset=-2 / threads=24 / lookahead_threads=6 / sliced_threads=0 / nr=0 / decimate=0 / interlaced=0 / bluray_compat=0 / constrained_intra=0 / bframes=12 / b_pyramid=2 / b_adapt=2 / b_bias=0 / direct=3 / weightb=1 / open_gop=0 / weightp=2 / keyint=250 / keyint_min=23 / scenecut=40 / intra_refresh=0 / rc=2pass / mbtree=0 / bitrate=12000 / ratetol=1.0 / qcomp=0.70 / qpmin=0 / qpmax=69 / qpstep=4 / cplxblur=20.0 / qblur=0.5 / ip_ratio=1.30 / pb_ratio=1.20 / aq=3:0.80
Default : Yes
Forced : No
Color range : Limited
Color primaries : BT.709
Matrix coefficients : BT.709

Audio
ID : 2
ID in the original source medium : 4352 (0x1100)
Format : PCM
Format settings : Little / Signed
Codec ID : A_PCM/INT/LIT
Duration : 1 h 46 min
Bit rate mode : Constant
Bit rate : 1 152 kb/s
Channel(s) : 1 channel
Sampling rate : 48.0 kHz
Frame rate : 200.000 FPS (240 SPF)
Bit depth : 24 bits
Stream size : 876 MiB (9%)
Language : Bengali
Default : Yes
Forced : No
Original source medium : Blu-ray

Text #1
ID : 3
ID in the original source medium : 4608 (0x1200)
Format : PGS
Codec ID : S_HDMV/PGS
Codec ID/Info : Picture based subtitle format used on BDs/HD-DVDs
Duration : 1 h 44 min
Bit rate : 24.9 kb/s
Frame rate : 0.244 FPS
Count of elements : 1535
Stream size : 18.6 MiB (0%)
Language : English
Default : Yes
Forced : No
Original source medium : Blu-ray

Text #2
ID : 4
ID in the original source medium : 4609 (0x1201)
Format : PGS
Codec ID : S_HDMV/PGS
Codec ID/Info : Picture based subtitle format used on BDs/HD-DVDs
Duration : 1 h 44 min
Bit rate : 14.3 kb/s
Frame rate : 0.156 FPS
Count of elements : 978
Stream size : 10.7 MiB (0%)
Title : Chs
Language : Chinese
Default : Yes
Forced : No
Original source medium : Blu-ray

Text #3
ID : 5
ID in the original source medium : 4610 (0x1202)
Format : PGS
Codec ID : S_HDMV/PGS
Codec ID/Info : Picture based subtitle format used on BDs/HD-DVDs
Duration : 1 h 44 min
Bit rate : 14.8 kb/s
Frame rate : 0.156 FPS
Count of elements : 976
Stream size : 11.0 MiB (0%)
Title : Cht
Language : Chinese
Default : Yes
Forced : No
Original source medium : Blu-ray

Menu
00:00:00.000 : en:第 01 章
00:03:46.768 : en:第 02 章
00:08:17.705 : en:第 03 章
00:14:36.709 : en:第 04 章
00:20:28.977 : en:第 05 章
00:25:27.776 : en:第 06 章
00:28:55.775 : en:第 07 章
00:35:26.791 : en:第 08 章
00:38:30.683 : en:第 09 章
00:43:34.987 : en:第 10 章
00:49:14.743 : en:第 11 章
00:56:35.141 : en:第 12 章
01:02:27.118 : en:第 13 章
01:04:05.091 : en:第 14 章
01:11:58.063 : en:第 15 章
01:15:57.135 : en:第 16 章
01:21:03.650 : en:第 17 章
01:25:41.344 : en:第 18 章
01:33:57.131 : en:第 19 章
01:41:16.361 : en:第 20 章


部分资源为软字幕,移动端推荐播放器:MxPlayer,nPlayer,infuse ,其他播放器请自行尝试。

部分资源为软字幕,电脑端推荐播放器:PotPlayer,完美解码,KMPLAYER,其他播放器请自行尝试。



1 个附件 售价 大小 下载 时间

Apur.Sansar.1959.BluRay.1080p.LPCM1.0.x264-DreamHD[1LOU.ME].torrent 0 金币 27.67K 1120 次 1月前

#1楼
发帖时间:2024-02-26 13:35:41   |   回复数:0
游客组