Asuka601
隐世仙人♂

[2023] [香港] [喜剧] [WEB-1080P] 阴目侦信[国语音轨/繁体字幕].YUM.Investigation.2023.1080p.DSNP.WEB-DL.DDP.5.1.H.264-DreamHD 4

-->

完整标题:阴目侦信[国语音轨/繁体字幕].YUM.Investigation.2023.1080p.DSNP.WEB-DL.DDP.5.1.H.264-DreamHD 4.65GB



◎标  题 阴目侦信
◎译  名 Yum Investigation
◎片  名 陰目偵信
◎年  代 2023
◎产  地 中国香港
◎类  别 喜剧 / 惊悚 / 恐怖
◎语  言 粤语
◎上映日期 2023-08-10(中国香港)
◎IMDb评分 5.2/10 (27人评价)
◎IMDb链接 https://www.imdb.com/title/tt28767410/
◎豆瓣评分 5.0/10 (209人评价)
◎豆瓣链接 https://movie.douban.com/subject/36247697/
◎片  长 110分钟
◎导  演 梁国辉
◎演  员 梁业 Yip Leung
      何启华 DeeGor Ho
      郭嘉骏 Denis Kwok
      吴保锜 poki Ng
      周家怡 Catherine Chau
      葛民辉 Eric Kot
      太保 Po Tai
      罗永昌 Wing-cheong Law
      张达伦 Max Cheung

◎简  介
    改编自同名热门恐怖小说的电影《阴目侦信》发布先导预告,阴目征信社接到新Case了?   原著讲述从小拥有阴阳眼的石头成长过程十多年来与鬼为邻,见尽生死相隔、人鬼殊途。身为香港首富伍氏豪门的子嗣,伍伯良身负家族世代相传、不可告人的惊天秘密。大学猛鬼宿舍,时辰一到,石头与新结识的伍伯良和怪人PATRICK,能否合力阻止鬼门大开?

点击图片可查看大图

软字幕无法在截图上展现,HDR版本/杜比视界版本截图会出现颜色异常,请使用支持的设备播放!

##### MediaInfo ######
General
Unique ID : 208836260400979904976025624163205231750 (0x9D1C6696C426279B7A83742CEEC3B486)
Complete name : YUM.Investigation.2023.1080p.DSNP.WEB-DL.DDP.5.1.H.264-DreamHD.mkv
Duration : 1 h 50 min
Overall bit rate mode : Variable
Overall bit rate : 6 056 kb/s

Video
ID : 1
Format : AVC
Format/Info : Advanced Video Codec
Format profile : High@L4
Format settings : CABAC / 4 Ref Frames
Format settings, CABAC : Yes
Format settings, Reference frames : 4 frames
Codec ID : V_MPEG4/ISO/AVC
Duration : 1 h 50 min
Bit rate mode : Variable
Bit rate : 5 798 kb/s
Maximum bit rate : 12.7 Mb/s
Width : 1 920 pixels
Height : 1 080 pixels
Display aspect ratio : 16:9
Frame rate mode : Constant
Frame rate : 24.000 FPS
Color space : YUV
Chroma subsampling : 4:2:0
Bit depth : 8 bits
Scan type : Progressive
Bits/(Pixel*Frame) : 0.117
Stream size : 4.46 GiB (96%)
Language : Chinese
Default : Yes
Forced : No
Color range : Limited
Color primaries : BT.709
Transfer characteristics : BT.709
Matrix coefficients : BT.709

Audio
ID : 2
Format : E-AC-3
Format/Info : Enhanced AC-3
Commercial name : Dolby Digital Plus
Codec ID : A_EAC3
Duration : 1 h 50 min
Bit rate mode : Constant
Bit rate : 256 kb/s
Channel(s) : 6 channels
Channel layout : L R C LFE Ls Rs
Sampling rate : 48.0 kHz
Frame rate : 31.250 FPS (1536 SPF)
Compression mode : Lossy
Stream size : 201 MiB (4%)
Language : Chinese
Service kind : Complete Main
Default : Yes
Forced : No

Text
ID : 3
Format : UTF-8
Codec ID : S_TEXT/UTF8
Codec ID/Info : UTF-8 Plain Text
Duration : 1 h 47 min
Bit rate : 40 b/s
Frame rate : 0.223 FPS
Count of elements : 1436
Stream size : 32.2 KiB (0%)
Title : Traditional
Language : Chinese
Default : No
Forced : No


部分资源为软字幕,移动端推荐播放器:MxPlayer,nPlayer,infuse ,其他播放器请自行尝试。

部分资源为软字幕,电脑端推荐播放器:PotPlayer,完美解码,KMPLAYER,其他播放器请自行尝试。



1 个附件 售价 大小 下载 时间

YUM.Investigation.2023.1080p.DSNP.WEB-DL.DDP.5.1.H.264-DreamHD[1LOU.ME].torrent 0 金币 14.71K 3409 次 1月前

#1楼
发帖时间:2024-02-25 22:18:04   |   回复数:3
zachariah
武林高手
骗子,没有国语音轨,大家不要上当。
1月前 #2楼
亚瑟王
一派掌门
谢谢楼主分享
1月前 #3楼
zsy17023
小有名气
不是国语呀,是粤语。。。
1月前 #4楼
游客组