Asuka601
隐世仙人♂

[2022] [欧美] [喜剧] [BD-1080P] 尘中之物[中文字幕].Something.in.the.Dirt.2022.BluRay.REMUX.1080p.AVC.DTS-HD.MA5.1-DreamH

-->

完整标题:尘中之物[中文字幕].Something.in.the.Dirt.2022.BluRay.REMUX.1080p.AVC.DTS-HD.MA5.1-DreamHD 29.95GB



◎标  题 尘中之物
◎片  名 Something in the Dirt
◎年  代 2022
◎产  地 美国
◎类  别 喜剧 / 科幻 / 恐怖
◎语  言 英语
◎上映日期 2022-01-23(圣丹斯电影节) / 2022-11-22(美国)
◎IMDb评分 5.9/10 (4824人评价)
◎IMDb链接 https://www.imdb.com/title/tt14895716/
◎豆瓣评分 5.4/10 (838人评价)
◎豆瓣链接 https://movie.douban.com/subject/35693595/
◎片  长 116分钟
◎导  演 贾斯汀·本森 Justin Benson
      艾伦·穆尔黑德 Aaron Moorhead
◎编  剧 贾斯汀·本森 Justin Benson
◎演  员 艾伦·穆尔黑德 Aaron Moorhead
      贾斯汀·本森 Justin Benson
      萨拉·阿迪纳·史密斯 Sarah Adina Smith
      Wanjiru M. Njendu Wanjiru M. Njendu
      温尼·柯伦 Vinny Curran
      盖尔·克莱宾 Gille Klabin
      C·罗伯特·嘉吉 C. Robert Cargill
      连恩·盖文 Liam Gavin
      David Clarke Lawson Jr. David Clarke Lawson Jr.
      Michael Felker
      斯蒂凡尼亚·切拉 Stefania Cella
      Ariel Vida Ariel Vida

◎简  介
    邻居约翰(亚伦·穆尔黑德饰)和李维(贾斯汀·本森饰)在洛杉矶的公寓楼里目睹超自然事件时,他们意识到记录这些超自然现象可以为他们这种废柴带来名声和财富。而随着一个越来越深、越来越黑的兔子洞的出现,他们的城市开始崩塌…

##### MediaInfo ######
General
Unique ID : 301645487614824407902944376737553203120 (0xE2EECEC6A68F2D391DBE49CCCAB83FB0)
Complete name : Something.in.the.Dirt.2022.BluRay.REMUX.1080p.AVC.DTS-HD.MA5.1-DreamHD.mkv
Duration : 1 h 55 min
Overall bit rate mode : Variable
Overall bit rate : 37.1 Mb/s

Video
ID : 1
ID in the original source medium : 4113 (0x1011)
Format : AVC
Format/Info : Advanced Video Codec
Format profile : [email protected]
Format settings : CABAC / 4 Ref Frames
Format settings, CABAC : Yes
Format settings, Reference frames : 4 frames
Codec ID : V_MPEG4/ISO/AVC
Duration : 1 h 55 min
Bit rate mode : Variable
Bit rate : 35.5 Mb/s
Maximum bit rate : 38.0 Mb/s
Width : 1 920 pixels
Height : 1 080 pixels
Display aspect ratio : 16:9
Frame rate mode : Constant
Frame rate : 23.976 (24000/1001) FPS
Color space : YUV
Chroma subsampling : 4:2:0
Bit depth : 8 bits
Scan type : Progressive
Bits/(Pixel*Frame) : 0.715
Stream size : 28.7 GiB (96%)
Default : Yes
Forced : No
Original source medium : Blu-ray

Audio
ID : 2
ID in the original source medium : 4353 (0x1101)
Format : DTS XLL
Format/Info : Digital Theater Systems
Commercial name : DTS-HD Master Audio
Codec ID : A_DTS
Duration : 1 h 55 min
Bit rate mode : Variable
Bit rate : 1 466 kb/s
Channel(s) : 6 channels
Channel layout : C L R Ls Rs LFE
Sampling rate : 48.0 kHz
Frame rate : 93.750 FPS (512 SPF)
Bit depth : 16 bits
Compression mode : Lossless
Stream size : 1.18 GiB (4%)
Language : English
Default : Yes
Forced : No
Original source medium : Blu-ray

Text #1
ID : 3
ID in the original source medium : 4608 (0x1200)
Format : PGS
Muxing mode : zlib
Codec ID : S_HDMV/PGS
Codec ID/Info : Picture based subtitle format used on BDs/HD-DVDs
Duration : 1 h 54 min
Bit rate : 42.9 kb/s
Frame rate : 0.506 FPS
Count of elements : 3472
Stream size : 35.1 MiB (0%)
Language : English
Default : Yes
Forced : No
Original source medium : Blu-ray

Text #2
ID : 4
ID in the original source medium : 4610 (0x1202)
Format : PGS
Muxing mode : zlib
Codec ID : S_HDMV/PGS
Codec ID/Info : Picture based subtitle format used on BDs/HD-DVDs
Duration : 1 h 54 min
Bit rate : 49.5 kb/s
Frame rate : 0.463 FPS
Count of elements : 3179
Stream size : 40.5 MiB (0%)
Language : Chinese
Default : Yes
Forced : No
Original source medium : Blu-ray

Text #3
ID : 5
ID in the original source medium : 4611 (0x1203)
Format : PGS
Muxing mode : zlib
Codec ID : S_HDMV/PGS
Codec ID/Info : Picture based subtitle format used on BDs/HD-DVDs
Duration : 1 h 54 min
Bit rate : 30.9 kb/s
Frame rate : 0.463 FPS
Count of elements : 3179
Stream size : 25.3 MiB (0%)
Language : Chinese
Default : Yes
Forced : No
Original source medium : Blu-ray

Text #4
ID : 6
ID in the original source medium : 4612 (0x1204)
Format : PGS
Muxing mode : zlib
Codec ID : S_HDMV/PGS
Codec ID/Info : Picture based subtitle format used on BDs/HD-DVDs
Duration : 1 h 54 min
Bit rate : 53.1 kb/s
Frame rate : 0.463 FPS
Count of elements : 3179
Stream size : 43.5 MiB (0%)
Language : Chinese
Default : Yes
Forced : No
Original source medium : Blu-ray

Text #5
ID : 7
ID in the original source medium : 4613 (0x1205)
Format : PGS
Muxing mode : zlib
Codec ID : S_HDMV/PGS
Codec ID/Info : Picture based subtitle format used on BDs/HD-DVDs
Duration : 1 h 54 min
Bit rate : 34.4 kb/s
Frame rate : 0.463 FPS
Count of elements : 3179
Stream size : 28.2 MiB (0%)
Language : Chinese
Default : Yes
Forced : No
Original source medium : Blu-ray

Menu
00:00:00.000 : en:Chapter 01
00:08:10.740 : en:Chapter 02
00:17:29.715 : en:Chapter 03
00:26:18.702 : en:Chapter 04
00:38:29.724 : en:Chapter 05
00:49:03.565 : en:Chapter 06
00:57:09.717 : en:Chapter 07
01:07:40.264 : en:Chapter 08
01:20:31.576 : en:Chapter 09
01:29:34.619 : en:Chapter 10
01:39:04.563 : en:Chapter 11
01:48:01.016 : en:Chapter 12


部分资源为软字幕,移动端推荐播放器:MxPlayer,nPlayer,infuse ,其他播放器请自行尝试。

部分资源为软字幕,电脑端推荐播放器:PotPlayer,完美解码,KMPLAYER,其他播放器请自行尝试。



1 个附件 售价 大小 下载 时间

Something.in.the.Dirt.2022.BluRay.REMUX.1080p.AVC.DTS-HD.MA5.1-DreamHD[1LOU.ME].torrent 0 金币 77.96K 1680 次 1月前

#1楼
发帖时间:2024-02-25 22:17:02   |   回复数:0
游客组