Asuka601
隐世仙人♂

[2022] [欧美] [恐怖] [BD-4K] 危笑[中文字幕].Smile.2022.UHD.BluRay.REMUX.2160p.HEVC.Atmos.TrueHD7.1-DreamHD 60.83GB

-->

完整标题:危笑[中文字幕].Smile.2022.UHD.BluRay.REMUX.2160p.HEVC.Atmos.TrueHD7.1-DreamHD 60.83GB



◎标  题 危笑
◎译  名 微笑(台) / 魅笑(港) / 夺命微笑 / 笑死 / Something's Wrong with Rose
◎片  名 Smile
◎年  代 2022
◎产  地 美国
◎类  别 恐怖
◎语  言 英语
◎上映日期 2022-09-22(奇幻影展) / 2022-09-30(美国)
◎IMDb评分 6.5/10 (147915人评价)
◎IMDb链接 https://www.imdb.com/title/tt15474916/
◎豆瓣评分 6.3/10 (48103人评价)
◎豆瓣链接 https://movie.douban.com/subject/35779959/
◎片  长 115分钟
◎导  演 帕克·芬恩 Parker Finn
◎编  剧 帕克·芬恩 Parker Finn
◎演  员 索茜·贝肯 Sosie Bacon
      凯尔·加尔纳 Kyle Gallner
      凯特琳·斯塔西 Caitlin Stasey
      罗宾·薇格特 Robin Weigert
      杰西·厄舍 Jessie Usher
      卡尔·潘 Kal Penn
      朱迪·雷耶斯 Judy Reyes
      凯文·凯皮 Kevin Keppy
      罗布·摩根 Rob Morgan
      吉莲·珍塞尔 Gillian Zinser
      马蒂·马图利斯 Marti Matulis
      朵拉·济丝 Dora Kiss
      莎拉·卡普纳 Sara Kapner
      马修·兰姆 Matthew Lamb
      杰里·洛布罗 Jerry Lobrow
      谢维·古铁雷斯 Shevy Berkovits Gutierrez
      梅兹·阿特伍德 Mezi Atwood
      凡妮莎·科扎特 Vanessa Cozart
      梁树翘 Shu Q
      乌拉·尤安娜·桑切斯 Ura Yoana Sanchez
      艾西亚·赫尔南德斯 Asia Hernandez
      雅典娜·斯麦丽 Athena Smiley
      杰克·索切特 Jack Sochet
      塞蒂·布罗斯维特 Setty Brosevelt
      尼克·阿拉波格鲁 Nick Arapoglou
      贾里德·约翰斯顿 Jared Johnston
      伊莲·阿普鲁泽西 Elaine Apruzzese
      娜迪亚·拉姆达斯 Nadia Ramdass
      史蒂文·斯特里克兰 Steven Strickland
      佩里·斯特朗 Perry Strong
      安妮·施麦尔茨根 Anne Schmalzigan
      伊莲娜·布莱克曼 Irene Blackman
      梅根·布朗·普拉特 Meghan Brown Pratt
      小费利克斯·梅伦德斯 Felix Melendez Jr.

◎简  介
    在目睹一名病人诡异的创伤经验之后,萝丝·卡特医师(索茜·贝肯 饰)开始经历一些她无法解释的恐怖事件。当一股令人不寒而栗的可怕力量开始占据她的生活,萝丝就必须面对她令人不安的阴暗过去,才能够存活并逃离她充满恐惧的全新现实。

##### MediaInfo ######
General
Unique ID : 200295681536884763798375020881991386493 (0x96AF8B8A627E7E9A215FFD839B0B457D)
Complete name : Smile.2022.UHD.BluRay.REMUX.2160p.HEVC.Atmos.TrueHD7.1-DreamHD.mkv
Duration : 1 h 55 min
Overall bit rate mode : Variable
Overall bit rate : 75.3 Mb/s

Video
ID : 1
ID in the original source medium : 4113 (0x1011)
Format : HEVC
Format/Info : High Efficiency Video Coding
Format profile : Main [email protected]@High
HDR format : SMPTE ST 2086, HDR10 compatible
Codec ID : V_MPEGH/ISO/HEVC
Duration : 1 h 55 min
Bit rate : 71.5 Mb/s
Width : 3 840 pixels
Height : 2 160 pixels
Display aspect ratio : 16:9
Frame rate mode : Constant
Frame rate : 23.976 (24000/1001) FPS
Color space : YUV
Chroma subsampling : 4:2:0 (Type 2)
Bit depth : 10 bits
Bits/(Pixel*Frame) : 0.360
Stream size : 57.8 GiB (95%)
Default : Yes
Forced : No
Color range : Limited
Color primaries : BT.2020
Transfer characteristics : PQ
Matrix coefficients : BT.2020 non-constant
Mastering display color primaries : Display P3
Mastering display luminance : min: 0.0001 cd/m2, max: 1000 cd/m2
Maximum Content Light Level : 599 cd/m2
Maximum Frame-Average Light Level : 226 cd/m2
Original source medium : Blu-ray

Audio
ID : 2
ID in the original source medium : 4352 (0x1100)
Format : MLP FBA 16-ch
Format/Info : Meridian Lossless Packing FBA with 16-channel presentation
Commercial name : Dolby TrueHD with Dolby Atmos
Codec ID : A_TRUEHD
Duration : 1 h 55 min
Bit rate mode : Variable
Bit rate : 3 637 kb/s
Maximum bit rate : 7 251 kb/s
Channel(s) : 8 channels
Channel layout : L R C LFE Ls Rs Lb Rb
Sampling rate : 48.0 kHz
Frame rate : 1 200.000 FPS (40 SPF)
Compression mode : Lossless
Stream size : 2.94 GiB (5%)
Language : English
Default : Yes
Forced : No
Original source medium : Blu-ray
Number of dynamic objects : 11
Bed channel count : 1 channel
Bed channel configuration : LFE

Text #1
ID : 3
ID in the original source medium : 4769 (0x12A1)
Format : PGS
Muxing mode : zlib
Codec ID : S_HDMV/PGS
Codec ID/Info : Picture based subtitle format used on BDs/HD-DVDs
Duration : 1 h 49 min
Bit rate : 32.9 kb/s
Frame rate : 0.408 FPS
Count of elements : 2684
Stream size : 25.8 MiB (0%)
Language : English
Default : Yes
Forced : No
Original source medium : Blu-ray

Text #2
ID : 4
ID in the original source medium : 4778 (0x12AA)
Format : PGS
Muxing mode : zlib
Codec ID : S_HDMV/PGS
Codec ID/Info : Picture based subtitle format used on BDs/HD-DVDs
Duration : 1 h 49 min
Bit rate : 26.8 kb/s
Frame rate : 0.326 FPS
Count of elements : 2146
Stream size : 21.0 MiB (0%)
Language : Chinese
Default : Yes
Forced : No
Original source medium : Blu-ray

Text #3
ID : 5
ID in the original source medium : 4779 (0x12AB)
Format : PGS
Muxing mode : zlib
Codec ID : S_HDMV/PGS
Codec ID/Info : Picture based subtitle format used on BDs/HD-DVDs
Duration : 1 h 49 min
Bit rate : 26.6 kb/s
Frame rate : 0.326 FPS
Count of elements : 2146
Stream size : 20.9 MiB (0%)
Language : Chinese
Default : Yes
Forced : No
Original source medium : Blu-ray

Text #4
ID : 6
ID in the original source medium : 4780 (0x12AC)
Format : PGS
Muxing mode : zlib
Codec ID : S_HDMV/PGS
Codec ID/Info : Picture based subtitle format used on BDs/HD-DVDs
Duration : 1 h 49 min
Bit rate : 52.5 kb/s
Frame rate : 0.326 FPS
Count of elements : 2146
Stream size : 41.2 MiB (0%)
Language : Chinese
Default : Yes
Forced : No
Original source medium : Blu-ray

Text #5
ID : 7
ID in the original source medium : 4781 (0x12AD)
Format : PGS
Muxing mode : zlib
Codec ID : S_HDMV/PGS
Codec ID/Info : Picture based subtitle format used on BDs/HD-DVDs
Duration : 1 h 49 min
Bit rate : 52.2 kb/s
Frame rate : 0.326 FPS
Count of elements : 2146
Stream size : 41.0 MiB (0%)
Language : Chinese
Default : Yes
Forced : No
Original source medium : Blu-ray

Menu
00:00:00.000 : en:Chapter 01
00:06:11.746 : en:Chapter 02
00:13:38.859 : en:Chapter 03
00:22:07.159 : en:Chapter 04
00:30:04.719 : en:Chapter 05
00:37:01.010 : en:Chapter 06
00:43:23.809 : en:Chapter 07
00:51:01.558 : en:Chapter 08
00:58:04.063 : en:Chapter 09
01:04:29.365 : en:Chapter 10
01:12:16.915 : en:Chapter 11
01:20:57.435 : en:Chapter 12
01:29:31.657 : en:Chapter 13
01:37:18.290 : en:Chapter 14
01:44:07.991 : en:Chapter 15
01:50:24.618 : en:Chapter 16


部分资源为软字幕,移动端推荐播放器:MxPlayer,nPlayer,infuse ,其他播放器请自行尝试。

部分资源为软字幕,电脑端推荐播放器:PotPlayer,完美解码,KMPLAYER,其他播放器请自行尝试。



1 个附件 售价 大小 下载 时间

Smile.2022.UHD.BluRay.REMUX.2160p.HEVC.Atmos.TrueHD7.1-DreamHD[1LOU.ME].torrent 0 金币 155.14K 1764 次 1月前

#1楼
发帖时间:2024-02-25 22:15:08   |   回复数:0
游客组