Asuka601
隐世仙人♂

[更 早] [欧美] [喜剧] [BD-4K] 怪物史瑞克2[中文字幕].Shrek.2.2004.UHD.BluRay.REMUX.2160p.HEVC.DTS-HD.MA7.1-DreamHD 49.99

-->

完整标题:怪物史瑞克2[中文字幕].Shrek.2.2004.UHD.BluRay.REMUX.2160p.HEVC.DTS-HD.MA7.1-DreamHD 49.99GB



◎标  题 怪物史瑞克2
◎译  名 史力加2(港) / 史瑞克2(台) / 怪物史莱克2
◎片  名 Shrek 2
◎年  代 2004
◎产  地 美国
◎类  别 喜剧 / 动画 / 家庭 / 奇幻 / 冒险
◎语  言 英语
◎上映日期 2004-08-13(中国大陆) / 2004-05-19(美国)
◎IMDb评分 7.3/10 (474794人评价)
◎IMDb链接 https://www.imdb.com/title/tt0298148/
◎豆瓣链接 https://movie.douban.com/subject/1291582/
◎片  长 93分钟

◎简  介
    延续了第一部的风格,继续对经典童话进行善意的颠覆。   史莱克和费奥娜公主度完浪漫的蜜月后,回到沼泽地。受费奥娜的父母哈沃尔德国王和莉莲王后的邀请,怪物夫妻带着他们的驴子,浩浩荡荡赶往“遥远国”。   国王和皇后见到分别多日的女儿和乘龙快婿,惊喜变成惊吓,灾难似乎也从此开始。   公主从前的仙女教母,很早前就曾叫自己的儿子“魅力王子”去城堡里屠龙救美,可惜让史莱克抢先了一步,她找到了童话中鼎鼎大名的怪物杀手穿靴子的猫,准备抢回自己心目中的媳妇。

##### MediaInfo ######
General
Unique ID : 327268383957275255357062042577272144644 (0xF6359919E66A66A915A840575E158304)
Complete name : Shrek.2.2004.UHD.BluRay.REMUX.2160p.HEVC.DTS-HD.MA7.1-DreamHD.mkv
Duration : 1 h 32 min
Overall bit rate mode : Variable
Overall bit rate : 77.1 Mb/s

Video
ID : 1
ID in the original source medium : 4113 (0x1011)
Format : HEVC
Format/Info : High Efficiency Video Coding
Format profile : Main [email protected]@High
HDR format : SMPTE ST 2086, HDR10 compatible
Codec ID : V_MPEGH/ISO/HEVC
Duration : 1 h 32 min
Bit rate : 72.2 Mb/s
Width : 3 840 pixels
Height : 2 160 pixels
Display aspect ratio : 16:9
Frame rate mode : Constant
Frame rate : 23.976 (24000/1001) FPS
Color space : YUV
Chroma subsampling : 4:2:0 (Type 2)
Bit depth : 10 bits
Bits/(Pixel*Frame) : 0.363
Stream size : 46.8 GiB (94%)
Default : Yes
Forced : No
Color range : Limited
Color primaries : BT.2020
Transfer characteristics : PQ
Matrix coefficients : BT.2020 non-constant
Mastering display color primaries : Display P3
Mastering display luminance : min: 0.0050 cd/m2, max: 1000 cd/m2
Maximum Content Light Level : 1000 cd/m2
Maximum Frame-Average Light Level : 147 cd/m2
Original source medium : Blu-ray

Audio
ID : 2
ID in the original source medium : 4352 (0x1100)
Format : DTS XLL X
Format/Info : Digital Theater Systems
Commercial name : DTS-HD Master Audio
Codec ID : A_DTS
Duration : 1 h 32 min
Bit rate mode : Variable
Bit rate : 4 849 kb/s
Channel(s) : 8 channels
Channel(s)_Original : Object Based
ChannelLayout_Original : Object Based
Sampling rate : 48.0 kHz
Frame rate : 93.750 FPS (512 SPF)
Bit depth : 24 bits
Stream size : 3.14 GiB (6%)
Language : English
Default : Yes
Forced : No
Original source medium : Blu-ray

Text #1
ID : 3
ID in the original source medium : 4768 (0x12A0)
Format : PGS
Muxing mode : zlib
Codec ID : S_HDMV/PGS
Codec ID/Info : Picture based subtitle format used on BDs/HD-DVDs
Duration : 1 h 31 min
Bit rate : 54.1 kb/s
Frame rate : 0.593 FPS
Count of elements : 3248
Stream size : 35.3 MiB (0%)
Language : English
Default : Yes
Forced : No
Original source medium : Blu-ray

Text #2
ID : 4
ID in the original source medium : 4773 (0x12A5)
Format : PGS
Muxing mode : zlib
Codec ID : S_HDMV/PGS
Codec ID/Info : Picture based subtitle format used on BDs/HD-DVDs
Duration : 1 h 24 min
Bit rate : 35.7 kb/s
Frame rate : 0.417 FPS
Count of elements : 2108
Stream size : 21.5 MiB (0%)
Language : Chinese
Default : Yes
Forced : No
Original source medium : Blu-ray

Text #3
ID : 5
ID in the original source medium : 4774 (0x12A6)
Format : PGS
Muxing mode : zlib
Codec ID : S_HDMV/PGS
Codec ID/Info : Picture based subtitle format used on BDs/HD-DVDs
Duration : 1 h 24 min
Bit rate : 36.8 kb/s
Frame rate : 0.417 FPS
Count of elements : 2108
Stream size : 22.2 MiB (0%)
Language : Chinese
Default : Yes
Forced : No
Original source medium : Blu-ray

Menu
00:00:00.000 : en:Chapter 01
00:02:59.345 : en:Chapter 02
00:09:08.548 : en:Chapter 03
00:11:36.112 : en:Chapter 04
00:19:20.993 : en:Chapter 05
00:27:40.158 : en:Chapter 06
00:30:50.181 : en:Chapter 07
00:33:05.274 : en:Chapter 08
00:41:12.845 : en:Chapter 09
00:48:34.411 : en:Chapter 10
00:52:57.174 : en:Chapter 11
00:56:48.988 : en:Chapter 12
01:01:11.876 : en:Chapter 13
01:04:04.298 : en:Chapter 14
01:05:25.588 : en:Chapter 15
01:07:50.107 : en:Chapter 16
01:11:17.314 : en:Chapter 17
01:14:46.940 : en:Chapter 18
01:19:08.827 : en:Chapter 19
01:22:35.742 : en:Chapter 20


部分资源为软字幕,移动端推荐播放器:MxPlayer,nPlayer,infuse ,其他播放器请自行尝试。

部分资源为软字幕,电脑端推荐播放器:PotPlayer,完美解码,KMPLAYER,其他播放器请自行尝试。



1 个附件 售价 大小 下载 时间

Shrek.2.2004.UHD.BluRay.REMUX.2160p.HEVC.DTS-HD.MA7.1-DreamHD[1LOU.ME].torrent 0 金币 128.04K 1477 次 1月前

#1楼
发帖时间:2024-02-25 22:14:13   |   回复数:1
feung18
武林盟主
感謝樓主辛苦 !
1月前 #2楼
游客组