Asuka601
隐世仙人♂

[2022] [欧美] [动作] [BD-1080P] 暗影特工[中文字幕].Section.8.2022.BluRay.REMUX.1080p.AVC.DTS-HD.MA5.1-DreamHD 18.82GB

-->

完整标题:暗影特工[中文字幕].Section.8.2022.BluRay.REMUX.1080p.AVC.DTS-HD.MA5.1-DreamHD 18.82GB



◎标  题 暗影特工
◎译  名 Section 8
◎片  名 Section Eight
◎年  代 2022
◎产  地 美国
◎类  别 动作 / 犯罪
◎语  言 英语
◎上映日期 2022-09-23(美国)
◎IMDb评分 4.1/10 (1069人评价)
◎IMDb链接 https://www.imdb.com/title/tt14950412/
◎豆瓣评分 4.5/10 (542人评价)
◎豆瓣链接 https://movie.douban.com/subject/35737733/
◎片  长 98分钟
◎导  演 克里斯蒂安·塞斯玛 Christian Sesma
◎编  剧 查德·洛 Chad Law
◎演  员 斯科特·阿金斯 Scott Adkins
      瑞恩·柯万腾 Ryan Kwanten
      杜夫·龙格尔 Dolph Lundgren
      米基·洛克 Mickey Rourke
      德蒙特·莫罗尼 Dermot Mulroney
      罗伯特·拉萨多 Robert LaSardo
      保罗·斯隆 Paul Sloan

◎简  介
    一名退役士兵在为遇害的家人复仇后被捕入狱,而在他出狱后得到了秘密政府部门的招募。

##### MediaInfo ######
General
Unique ID : 65763793738620217830893758564878366867 (0x3179A55DC02AD677A1889F755661B893)
Complete name : Section.8.2022.BluRay.REMUX.1080p.AVC.DTS-HD.MA5.1-DreamHD.mkv
Duration : 1 h 37 min
Overall bit rate mode : Variable
Overall bit rate : 27.5 Mb/s

Video
ID : 1
Format : AVC
Format/Info : Advanced Video Codec
Format profile : [email protected]
Format settings : CABAC / 4 Ref Frames
Format settings, CABAC : Yes
Format settings, Reference frames : 4 frames
Codec ID : V_MPEG4/ISO/AVC
Duration : 1 h 37 min
Bit rate mode : Variable
Bit rate : 23.6 Mb/s
Maximum bit rate : 36.0 Mb/s
Width : 1 920 pixels
Height : 1 080 pixels
Display aspect ratio : 16:9
Frame rate mode : Constant
Frame rate : 23.976 (24000/1001) FPS
Color space : YUV
Chroma subsampling : 4:2:0
Bit depth : 8 bits
Scan type : Progressive
Bits/(Pixel*Frame) : 0.474
Stream size : 16.1 GiB (86%)
Default : Yes
Forced : No

Audio
ID : 2
ID in the original source medium : 4352 (0x1100)
Format : DTS XLL
Format/Info : Digital Theater Systems
Commercial name : DTS-HD Master Audio
Codec ID : A_DTS
Duration : 1 h 37 min
Bit rate mode : Variable
Bit rate : 3 813 kb/s
Channel(s) : 6 channels
Channel layout : C L R Ls Rs LFE
Sampling rate : 48.0 kHz
Frame rate : 93.750 FPS (512 SPF)
Bit depth : 24 bits
Compression mode : Lossless
Stream size : 2.61 GiB (14%)
Language : English
Default : Yes
Forced : No
Original source medium : Blu-ray

Text #1
ID : 3
ID in the original source medium : 4608 (0x1200)
Format : PGS
Muxing mode : zlib
Codec ID : S_HDMV/PGS
Codec ID/Info : Picture based subtitle format used on BDs/HD-DVDs
Duration : 1 h 35 min
Bit rate : 22.9 kb/s
Frame rate : 0.471 FPS
Count of elements : 2706
Stream size : 15.7 MiB (0%)
Language : English
Default : Yes
Forced : No
Original source medium : Blu-ray

Text #2
ID : 4
ID in the original source medium : 4611 (0x1203)
Format : PGS
Muxing mode : zlib
Codec ID : S_HDMV/PGS
Codec ID/Info : Picture based subtitle format used on BDs/HD-DVDs
Duration : 1 h 35 min
Bit rate : 43.9 kb/s
Frame rate : 0.573 FPS
Count of elements : 3292
Stream size : 30.0 MiB (0%)
Language : Chinese
Default : Yes
Forced : No
Original source medium : Blu-ray

Text #3
ID : 5
ID in the original source medium : 4612 (0x1204)
Format : PGS
Muxing mode : zlib
Codec ID : S_HDMV/PGS
Codec ID/Info : Picture based subtitle format used on BDs/HD-DVDs
Duration : 1 h 35 min
Bit rate : 44.7 kb/s
Frame rate : 0.573 FPS
Count of elements : 3292
Stream size : 30.6 MiB (0%)
Language : Chinese
Default : Yes
Forced : No
Original source medium : Blu-ray

Text #4
ID : 6
ID in the original source medium : 4613 (0x1205)
Format : PGS
Muxing mode : zlib
Codec ID : S_HDMV/PGS
Codec ID/Info : Picture based subtitle format used on BDs/HD-DVDs
Duration : 1 h 35 min
Bit rate : 64.4 kb/s
Frame rate : 0.573 FPS
Count of elements : 3292
Stream size : 44.1 MiB (0%)
Language : Chinese
Default : Yes
Forced : No
Original source medium : Blu-ray

Text #5
ID : 7
ID in the original source medium : 4614 (0x1206)
Format : PGS
Muxing mode : zlib
Codec ID : S_HDMV/PGS
Codec ID/Info : Picture based subtitle format used on BDs/HD-DVDs
Duration : 1 h 35 min
Bit rate : 65.2 kb/s
Frame rate : 0.573 FPS
Count of elements : 3292
Stream size : 44.6 MiB (0%)
Language : Chinese
Default : Yes
Forced : No
Original source medium : Blu-ray

Menu
00:00:00.000 : en:Chapter 01
00:16:02.461 : en:Chapter 02
00:26:28.128 : en:Chapter 03
00:37:03.387 : en:Chapter 04
00:51:06.938 : en:Chapter 05
01:01:35.233 : en:Chapter 06
01:13:56.515 : en:Chapter 07
01:31:39.994 : en:Chapter 08


部分资源为软字幕,移动端推荐播放器:MxPlayer,nPlayer,infuse ,其他播放器请自行尝试。

部分资源为软字幕,电脑端推荐播放器:PotPlayer,完美解码,KMPLAYER,其他播放器请自行尝试。



1 个附件 售价 大小 下载 时间

Section.8.2022.BluRay.REMUX.1080p.AVC.DTS-HD.MA5.1-DreamHD[1LOU.ME].torrent 0 金币 50.10K 2212 次 1月前

#1楼
发帖时间:2024-02-25 22:12:22   |   回复数:0
游客组