Asuka601
隐世仙人♂

[2022] [欧美] [动作] [BD-1080P] 秘密总部[中文字幕].Secret.Headquarters.2022.BluRay.REMUX.1080p.AVC.Atmos.TrueHD7.1-Dream

-->

完整标题:秘密总部[中文字幕].Secret.Headquarters.2022.BluRay.REMUX.1080p.AVC.Atmos.TrueHD7.1-DreamHD 25.73GB



◎标  题 秘密总部
◎译  名 秘密基地(台)
◎片  名 Secret Headquarters
◎年  代 2022
◎产  地 美国
◎类  别 动作 / 科幻 / 冒险
◎语  言 英语
◎上映日期 2022-08-12(美国网络)
◎IMDb评分 5.2/10 (6806人评价)
◎IMDb链接 https://www.imdb.com/title/tt14001894/
◎豆瓣评分 5.0/10 (868人评价)
◎豆瓣链接 https://movie.douban.com/subject/35410195/
◎片  长 89分钟
◎导  演 亨利·朱斯特 Henry Joost
      阿里尔·舒曼 Ariel Schulman
◎编  剧 克里斯托弗·约斯特 Christopher Yost
      亨利·朱斯特 Henry Joost
      阿里尔·舒曼 Ariel Schulman
◎演  员 欧文·威尔逊 Owen Wilson
      沃克·斯科贝尔 Walker Scobell
      杰西·威廉姆斯 Jesse Williams
      基思·L·威廉姆斯 Keith L. Williams
      迈克尔·佩纳 Michael Peña
      莫莫娜·塔玛达 Momona Tamada
      杰茜·缪勒 Jessie Mueller
      大卫·伦格尔 David Lengel
      达斯汀·英格拉姆 Dustin Ingram
      马洛里·霍夫 Mallory Hoff
      卢修斯·巴斯顿 Lucius Baston
      艾登·马利克 Aiden Malik

◎简  介
    年轻的查理·金凯德在家中发现了一个秘密总部,似乎是属于一个超级英雄的。他告诉了他的朋友们,他们开始相信,与金凯德关系疏远的父亲可能过着秘密的双重生活。

##### MediaInfo ######
General
Unique ID : 197049530333710573591105292139717651451 (0x943E5BEDF5751EBE25B15CC0337EEBFB)
Complete name : Secret.Headquarters.2022.BluRay.REMUX.1080p.AVC.Atmos.TrueHD7.1-DreamHD.mkv
Duration : 1 h 43 min
Overall bit rate mode : Variable
Overall bit rate : 35.5 Mb/s

Video
ID : 1
ID in the original source medium : 4113 (0x1011)
Format : AVC
Format/Info : Advanced Video Codec
Format profile : [email protected]
Format settings : CABAC / 4 Ref Frames
Format settings, CABAC : Yes
Format settings, Reference frames : 4 frames
Codec ID : V_MPEG4/ISO/AVC
Duration : 1 h 43 min
Bit rate mode : Variable
Bit rate : 31.4 Mb/s
Maximum bit rate : 33.0 Mb/s
Width : 1 920 pixels
Height : 1 080 pixels
Display aspect ratio : 16:9
Frame rate mode : Constant
Frame rate : 23.976 (24000/1001) FPS
Color space : YUV
Chroma subsampling : 4:2:0
Bit depth : 8 bits
Scan type : Progressive
Bits/(Pixel*Frame) : 0.631
Stream size : 22.7 GiB (88%)
Default : Yes
Forced : No
Original source medium : Blu-ray

Audio
ID : 2
ID in the original source medium : 4352 (0x1100)
Format : MLP FBA 16-ch
Format/Info : Meridian Lossless Packing FBA with 16-channel presentation
Commercial name : Dolby TrueHD with Dolby Atmos
Codec ID : A_TRUEHD
Duration : 1 h 43 min
Bit rate mode : Variable
Bit rate : 3 946 kb/s
Maximum bit rate : 7 170 kb/s
Channel(s) : 8 channels
Channel layout : L R C LFE Ls Rs Lb Rb
Sampling rate : 48.0 kHz
Frame rate : 1 200.000 FPS (40 SPF)
Compression mode : Lossless
Stream size : 2.86 GiB (11%)
Language : English
Default : Yes
Forced : No
Original source medium : Blu-ray
Number of dynamic objects : 11
Bed channel count : 1 channel
Bed channel configuration : LFE

Text #1
ID : 3
ID in the original source medium : 4609 (0x1201)
Format : PGS
Muxing mode : zlib
Codec ID : S_HDMV/PGS
Codec ID/Info : Picture based subtitle format used on BDs/HD-DVDs
Duration : 1 h 43 min
Bit rate : 49.7 kb/s
Frame rate : 0.606 FPS
Count of elements : 3766
Stream size : 36.8 MiB (0%)
Language : English
Default : Yes
Forced : No
Original source medium : Blu-ray

Text #2
ID : 4
ID in the original source medium : 4615 (0x1207)
Format : PGS
Muxing mode : zlib
Codec ID : S_HDMV/PGS
Codec ID/Info : Picture based subtitle format used on BDs/HD-DVDs
Duration : 1 h 43 min
Bit rate : 34.1 kb/s
Frame rate : 0.554 FPS
Count of elements : 3434
Stream size : 25.2 MiB (0%)
Language : Chinese
Default : Yes
Forced : No
Original source medium : Blu-ray

Text #3
ID : 5
ID in the original source medium : 4619 (0x120B)
Format : PGS
Muxing mode : zlib
Codec ID : S_HDMV/PGS
Codec ID/Info : Picture based subtitle format used on BDs/HD-DVDs
Duration : 1 h 43 min
Bit rate : 33.6 kb/s
Frame rate : 0.565 FPS
Count of elements : 3505
Stream size : 24.8 MiB (0%)
Language : Chinese
Default : Yes
Forced : No
Original source medium : Blu-ray

Text #4
ID : 6
ID in the original source medium : 4620 (0x120C)
Format : PGS
Muxing mode : zlib
Codec ID : S_HDMV/PGS
Codec ID/Info : Picture based subtitle format used on BDs/HD-DVDs
Duration : 1 h 43 min
Bit rate : 34.6 kb/s
Frame rate : 0.565 FPS
Count of elements : 3505
Stream size : 25.6 MiB (0%)
Language : Chinese
Default : Yes
Forced : No
Original source medium : Blu-ray

Text #5
ID : 7
ID in the original source medium : 4621 (0x120D)
Format : PGS
Muxing mode : zlib
Codec ID : S_HDMV/PGS
Codec ID/Info : Picture based subtitle format used on BDs/HD-DVDs
Duration : 1 h 43 min
Bit rate : 56.9 kb/s
Frame rate : 0.565 FPS
Count of elements : 3505
Stream size : 42.0 MiB (0%)
Language : Chinese
Default : Yes
Forced : No
Original source medium : Blu-ray

Text #6
ID : 8
ID in the original source medium : 4622 (0x120E)
Format : PGS
Muxing mode : zlib
Codec ID : S_HDMV/PGS
Codec ID/Info : Picture based subtitle format used on BDs/HD-DVDs
Duration : 1 h 43 min
Bit rate : 57.8 kb/s
Frame rate : 0.565 FPS
Count of elements : 3505
Stream size : 42.7 MiB (0%)
Language : Chinese
Default : Yes
Forced : No
Original source medium : Blu-ray

Menu
00:00:00.000 : en:Chapter 01
00:05:51.934 : en:Chapter 02
00:17:03.480 : en:Chapter 03
00:25:13.303 : en:Chapter 04
00:36:24.015 : en:Chapter 05
00:46:03.802 : en:Chapter 06
00:57:00.125 : en:Chapter 07
01:06:20.726 : en:Chapter 08
01:16:48.145 : en:Chapter 09
01:23:16.116 : en:Chapter 10
01:37:21.544 : en:Chapter 11


部分资源为软字幕,移动端推荐播放器:MxPlayer,nPlayer,infuse ,其他播放器请自行尝试。

部分资源为软字幕,电脑端推荐播放器:PotPlayer,完美解码,KMPLAYER,其他播放器请自行尝试。



1 个附件 售价 大小 下载 时间

Secret.Headquarters.2022.BluRay.REMUX.1080p.AVC.Atmos.TrueHD7.1-DreamHD[1LOU.ME].torrent 0 金币 67.41K 1442 次 1月前

#1楼
发帖时间:2024-02-25 22:11:26   |   回复数:0
游客组