Asuka601
隐世仙人♂

[更 早] [香港] [剧情] [BD-1080P] 无限复活[国语音轨/中文字幕].Second.Time.Around.2002.BluRay.REMUX.1080p.AVC.TrueHD5.1.2Audio-

-->

完整标题:无限复活[国语音轨/中文字幕].Second.Time.Around.2002.BluRay.REMUX.1080p.AVC.TrueHD5.1.2Audio-DreamHD 18.68GB



◎标  题 无限复活
◎译  名 Second Time Around
◎片  名 無限復活
◎年  代 2002
◎产  地 中国香港
◎类  别 剧情 / 爱情 / 科幻 / 奇幻
◎语  言 粤语 / 英语
◎上映日期 2002-01-11
◎IMDb评分 6.3/10 (393人评价)
◎IMDb链接 https://www.imdb.com/title/tt0286057/
◎豆瓣评分 7.2/10 (16023人评价)
◎豆瓣链接 https://movie.douban.com/subject/1305386/
◎片  长 Hong Kong: 99 分钟
◎导  演 刘镇伟 Jeffrey Lau
◎编  剧 刘镇伟 Jeffrey Lau
◎演  员 郑伊健 Ekin Cheng
      张柏芝 Cecilia Cheung
      关继威 Ke Huy Quan
      活丽明 Annamarie Ameera

◎简  介
    李伯仁(郑伊健 饰)是澳门赌场的服务生,由于他技巧高超,所以两年来他的桌子一直赢钱,从未输过。不过,伯仁不甘心做一个小喽啰,希望能有朝一日去赌城拉斯维加斯风光。可是,当他把这个梦想告诉同伴,却遭到对方一阵奚落。偏偏此时,他又被女友抛弃,走投无路之际,他要同伴将保险箱的钱借给他做赌资,同伴开始并不同意,后被他慷慨激昂的演说打动,铤而走险。他们来到赌城,手风很顺,可到了终盘,却被一个长发男子击败。心灰意冷的伯仁接连遭遇不测。一场车祸后,伯仁在医院醒来,此时他见到了负责此案调查的美丽女干探提娜(张柏芝 饰)。在交往中,伯仁揭穿了提娜男友真面目,导致二人分手。与此同时,他们的命运竟然也因红番回头石而发生了翻转……

##### MediaInfo ######
General
Unique ID : 211413506623011278430762858250449961122 (0x9F0CC2A35E860AE67BB8EAEF66C3C0A2)
Complete name : Second.Time.Around.2002.BluRay.REMUX.1080p.AVC.TrueHD5.1.2Audio-DreamHD.mkv
Duration : 1 h 38 min
Overall bit rate mode : Variable
Overall bit rate : 27.0 Mb/s

Video
ID : 1
ID in the original source medium : 4113 (0x1011)
Format : AVC
Format/Info : Advanced Video Codec
Format profile : [email protected]
Format settings : CABAC / 4 Ref Frames
Format settings, CABAC : Yes
Format settings, Reference frames : 4 frames
Codec ID : V_MPEG4/ISO/AVC
Duration : 1 h 38 min
Bit rate mode : Variable
Bit rate : 20.9 Mb/s
Maximum bit rate : 28.0 Mb/s
Width : 1 920 pixels
Height : 1 080 pixels
Display aspect ratio : 16:9
Frame rate mode : Constant
Frame rate : 24.000 FPS
Color space : YUV
Chroma subsampling : 4:2:0
Bit depth : 8 bits
Scan type : Progressive
Bits/(Pixel*Frame) : 0.419
Stream size : 14.4 GiB (77%)
Default : Yes
Forced : No
Original source medium : Blu-ray

Audio #1
ID : 2
ID in the original source medium : 4352 (0x1100)
Format : MLP FBA
Format/Info : Meridian Lossless Packing FBA
Commercial name : Dolby TrueHD
Codec ID : A_TRUEHD
Duration : 1 h 38 min
Bit rate mode : Variable
Bit rate : 3 004 kb/s
Maximum bit rate : 4 290 kb/s
Channel(s) : 6 channels
Channel layout : L R C LFE Ls Rs
Sampling rate : 96.0 kHz
Frame rate : 1 200.000 FPS (80 SPF)
Compression mode : Lossless
Stream size : 2.08 GiB (11%)
Language : Chinese
Default : Yes
Forced : No
Original source medium : Blu-ray

Audio #2
ID : 3
ID in the original source medium : 4353 (0x1101)
Format : MLP FBA
Format/Info : Meridian Lossless Packing FBA
Commercial name : Dolby TrueHD
Codec ID : A_TRUEHD
Duration : 1 h 38 min
Bit rate mode : Variable
Bit rate : 2 987 kb/s
Maximum bit rate : 4 290 kb/s
Channel(s) : 6 channels
Channel layout : L R C LFE Ls Rs
Sampling rate : 96.0 kHz
Frame rate : 1 200.000 FPS (80 SPF)
Compression mode : Lossless
Stream size : 2.06 GiB (11%)
Language : Chinese
Default : Yes
Forced : No
Original source medium : Blu-ray

Text #1
ID : 4
ID in the original source medium : 4608 (0x1200)
Format : PGS
Muxing mode : zlib
Codec ID : S_HDMV/PGS
Codec ID/Info : Picture based subtitle format used on BDs/HD-DVDs
Duration : 1 h 32 min
Bit rate : 37.1 kb/s
Frame rate : 0.388 FPS
Count of elements : 2156
Stream size : 24.6 MiB (0%)
Language : Chinese
Default : Yes
Forced : No
Original source medium : Blu-ray

Text #2
ID : 5
ID in the original source medium : 4609 (0x1201)
Format : PGS
Muxing mode : zlib
Codec ID : S_HDMV/PGS
Codec ID/Info : Picture based subtitle format used on BDs/HD-DVDs
Duration : 1 h 32 min
Bit rate : 34.5 kb/s
Frame rate : 0.388 FPS
Count of elements : 2156
Stream size : 22.9 MiB (0%)
Language : Chinese
Default : Yes
Forced : No
Original source medium : Blu-ray

Menu
00:00:00.000 : en:Chapter 01
00:07:31.291 : en:Chapter 02
00:19:12.750 : en:Chapter 03
00:24:48.833 : en:Chapter 04
00:32:37.916 : en:Chapter 05
00:37:03.625 : en:Chapter 06
00:51:41.166 : en:Chapter 07
00:58:56.791 : en:Chapter 08
01:04:37.875 : en:Chapter 09
01:13:45.333 : en:Chapter 10
01:21:23.166 : en:Chapter 11
01:32:54.833 : en:Chapter 12


部分资源为软字幕,移动端推荐播放器:MxPlayer,nPlayer,infuse ,其他播放器请自行尝试。

部分资源为软字幕,电脑端推荐播放器:PotPlayer,完美解码,KMPLAYER,其他播放器请自行尝试。



1 个附件 售价 大小 下载 时间

Second.Time.Around.2002.BluRay.REMUX.1080p.AVC.TrueHD5.1.2Audio-DreamHD[1LOU.ME].torrent 0 金币 49.79K 2023 次 1月前

#1楼
发帖时间:2024-02-25 22:10:35   |   回复数:0
游客组