Asuka601
隐世仙人♂

[更 早] [香港] [喜剧] [BD-1080P] 小生梦惊魂[国语音轨/中文字幕].Scared.Stiff.1987.BluRay.REMUX.1080p.AVC.TrueHD5.1.2Audio-Dream

-->

完整标题:小生梦惊魂[国语音轨/中文字幕].Scared.Stiff.1987.BluRay.REMUX.1080p.AVC.TrueHD5.1.2Audio-DreamHD 17.93GB



◎标  题 小生梦惊魂
◎译  名 Scared Stiff
◎片  名 小生夢驚魂
◎年  代 1987
◎产  地 中国香港
◎类  别 喜剧 / 惊悚 / 犯罪
◎语  言 粤语 / 汉语普通话
◎上映日期 1987-03-06
◎IMDb评分 5.7/10 (136人评价)
◎IMDb链接 https://www.imdb.com/title/tt0092248/
◎豆瓣评分 6.5/10 (2435人评价)
◎豆瓣链接 https://movie.douban.com/subject/1302360/
◎片  长 96 分钟
◎导  演 刘家荣 Chia Yung Liu
◎编  剧 司徒卓汉 Chuek-Hon Szeto
◎演  员 朱宝意 Emily Chu
      曾志伟 Eric Tsang
      周润发 Yun-Fat Chow
      苗侨伟 Kiu Wai Miu
      梅艳芳 Anita Mui
      吴君如 Sandra Ng
      午马 Wu Ma
      元华 Wah Yuen
      曾华倩 Margie Tsang
      上山诗钠 Anna Kamiyama
      高飞 Phillip Ko
      左燕翎 Yin-Ling Joh
      谈泉庆 Chuen-Hing Tam
      彭润祥 Yun-chiang Peng
      肥伯 Pak Fei
      张婉华 Yuen Wah Cheung
      周金江 Kam Kong Chow
      姚友雄 Yiu Yau-Hung

◎简  介
    玩具设计师苗和陈误撞强盗抢劫银行,苗因而得知自己有特异功能,能够进入别人的梦中,陈却因此成为痴呆。苗进入陈的梦中,发现至陈重伤的是警官周润发。最终,苗依靠特异功能杀了周,为陈报了仇。

##### MediaInfo ######
General
Unique ID : 258853552544099234051579945324538267325 (0xC2BD617C794B56F70CCF06B94C6C86BD)
Complete name : Scared.Stiff.1987.BluRay.REMUX.1080p.AVC.TrueHD5.1.2Audio-DreamHD.mkv
Duration : 1 h 36 min
Overall bit rate mode : Variable
Overall bit rate : 26.5 Mb/s

Video
ID : 1
ID in the original source medium : 4113 (0x1011)
Format : AVC
Format/Info : Advanced Video Codec
Format profile : [email protected]
Format settings : CABAC / 4 Ref Frames
Format settings, CABAC : Yes
Format settings, Reference frames : 4 frames
Codec ID : V_MPEG4/ISO/AVC
Duration : 1 h 36 min
Bit rate mode : Variable
Bit rate : 20.9 Mb/s
Maximum bit rate : 28.0 Mb/s
Width : 1 920 pixels
Height : 1 080 pixels
Display aspect ratio : 16:9
Frame rate mode : Constant
Frame rate : 24.000 FPS
Color space : YUV
Chroma subsampling : 4:2:0
Bit depth : 8 bits
Scan type : Progressive
Bits/(Pixel*Frame) : 0.419
Stream size : 14.1 GiB (79%)
Default : Yes
Forced : No
Original source medium : Blu-ray

Audio #1
ID : 2
ID in the original source medium : 4352 (0x1100)
Format : MLP FBA
Format/Info : Meridian Lossless Packing FBA
Commercial name : Dolby TrueHD
Codec ID : A_TRUEHD
Duration : 1 h 36 min
Bit rate mode : Variable
Bit rate : 2 749 kb/s
Maximum bit rate : 4 518 kb/s
Channel(s) : 6 channels
Channel layout : L R C LFE Ls Rs
Sampling rate : 96.0 kHz
Frame rate : 1 200.000 FPS (80 SPF)
Compression mode : Lossless
Stream size : 1.86 GiB (10%)
Language : Chinese
Default : Yes
Forced : No
Original source medium : Blu-ray

Audio #2
ID : 3
ID in the original source medium : 4353 (0x1101)
Format : MLP FBA
Format/Info : Meridian Lossless Packing FBA
Commercial name : Dolby TrueHD
Codec ID : A_TRUEHD
Duration : 1 h 36 min
Bit rate mode : Variable
Bit rate : 2 756 kb/s
Maximum bit rate : 4 518 kb/s
Channel(s) : 6 channels
Channel layout : L R C LFE Ls Rs
Sampling rate : 96.0 kHz
Frame rate : 1 200.000 FPS (80 SPF)
Compression mode : Lossless
Stream size : 1.86 GiB (10%)
Language : Chinese
Default : Yes
Forced : No
Original source medium : Blu-ray

Text #1
ID : 4
ID in the original source medium : 4608 (0x1200)
Format : PGS
Muxing mode : zlib
Codec ID : S_HDMV/PGS
Codec ID/Info : Picture based subtitle format used on BDs/HD-DVDs
Duration : 1 h 27 min
Bit rate : 29.4 kb/s
Frame rate : 0.328 FPS
Count of elements : 1717
Stream size : 18.4 MiB (0%)
Language : Chinese
Default : Yes
Forced : No
Original source medium : Blu-ray

Text #2
ID : 5
ID in the original source medium : 4609 (0x1201)
Format : PGS
Muxing mode : zlib
Codec ID : S_HDMV/PGS
Codec ID/Info : Picture based subtitle format used on BDs/HD-DVDs
Duration : 1 h 27 min
Bit rate : 27.3 kb/s
Frame rate : 0.328 FPS
Count of elements : 1717
Stream size : 17.0 MiB (0%)
Language : Chinese
Default : Yes
Forced : No
Original source medium : Blu-ray

Menu
00:00:00.000 : en:Chapter 01
00:07:45.583 : en:Chapter 02
00:13:16.125 : en:Chapter 03
00:19:48.333 : en:Chapter 04
00:28:01.166 : en:Chapter 05
00:34:36.208 : en:Chapter 06
00:47:18.458 : en:Chapter 07
00:52:45.000 : en:Chapter 08
01:00:59.583 : en:Chapter 09
01:09:22.333 : en:Chapter 10
01:17:16.500 : en:Chapter 11
01:25:47.500 : en:Chapter 12


部分资源为软字幕,移动端推荐播放器:MxPlayer,nPlayer,infuse ,其他播放器请自行尝试。

部分资源为软字幕,电脑端推荐播放器:PotPlayer,完美解码,KMPLAYER,其他播放器请自行尝试。



1 个附件 售价 大小 下载 时间

Scared.Stiff.1987.BluRay.REMUX.1080p.AVC.TrueHD5.1.2Audio-DreamHD[1LOU.ME].torrent 0 金币 47.90K 1750 次 1月前

#1楼
发帖时间:2024-02-25 22:09:41   |   回复数:1
feung18
武林盟主
感謝樓主辛苦 !
1月前 #2楼
游客组