Asuka601
隐世仙人♂

[2023] [日本] [剧情] [WEB-1080P] 爱之闪电[无字片源].Masked.Hearts.2023.1080p.HuluJP.WEB-DL.AAC.2.0.H.264-DreamHD 2.44GB

-->

完整标题:爱之闪电[无字片源].Masked.Hearts.2023.1080p.HuluJP.WEB-DL.AAC.2.0.H.264-DreamHD 2.44GB



◎标  题 爱之闪电
◎译  名 爱的烙印 / Masked Hearts
◎片  名 愛にイナズマ
◎年  代 2023
◎产  地 日本
◎类  别 剧情 / 家庭
◎语  言 日语
◎上映日期 2023-10-27(日本)
◎IMDb评分 6.4/10 (28人评价)
◎IMDb链接 https://www.imdb.com/title/tt27916137/
◎豆瓣链接 https://movie.douban.com/subject/36251736/
◎片  长 140分钟
◎导  演 石井裕也 Yûya Ishii
◎编  剧 石井裕也 Yûya Ishii
◎演  员 松冈茉优 Mayu Matsuoka
      洼田正孝 Masataka Kubota
      池松壮亮 Sosuke Ikematsu
      若叶龙也 Ryuya Wakaba
      佐藤浩市 Kôichi Satô
      仲野太贺 Taiga Nagano
      趣里 Shuri
      高良健吾 Kengo Kora
      Megumi
      三浦贵大 Takahiro Miura
      芹泽兴人 Tateto Serizawa
      笠原秀幸 Hideyuki Kasahara
      若林时英 Jiei Wakabayashi
      鹤见辰吾 Shingo Tsurumi
      北村有起哉 Yukiya Kitamura
      中野英雄 Hideo Nakano
      益冈彻 Tôru Masuoka
      大鹰明良 Akira Ohtaka
      佐藤贡三 Kôzô Satô
      中野裕斗 Yuto Nakano
      稻川实代子 Miyoko Inagawa
      岭豪一 Gôichi Mine
      川村纱也 Saya Kawamura
      田中美晴 Miharu Tanaka
      持田加奈子 Kanako Mochida
      内海诚子 Seiko Utsumi
      永井彩加 Ayaka Nagai

◎简  介
    讲述26岁的折村花子(松冈茉优 饰),在儿时梦想·电影导演出道前,被卑劣的制片人欺骗而被夺走了企划。处于失意状态的花子,以完全看不懂气氛的男子·馆正夫(窪田正孝 饰)的鼓励为契机,将10年以上音信不通的父亲(佐藤浩市 饰)和两个哥哥(池松壮亮·若叶龙也 饰)卷入其中,开始反击不讲理的社会。

点击图片可查看大图

软字幕无法在截图上展现,HDR版本/杜比视界版本截图会出现颜色异常,请使用支持的设备播放!

##### MediaInfo ######
General
Unique ID : 87971358015734011796379420423130706220 (0x422EAAD1E2908FA34F69AED3170BF12C)
Complete name : Masked.Hearts.2023.1080p.HuluJP.WEB-DL.AAC.2.0.H.264-DreamHD.mkv
Duration : 2 h 20 min
Overall bit rate : 2 492 kb/s

Video
ID : 1
Format : AVC
Format/Info : Advanced Video Codec
Format profile : High@L4
Format settings : CABAC / 4 Ref Frames
Format settings, CABAC : Yes
Format settings, Reference frames : 4 frames
Codec ID : V_MPEG4/ISO/AVC
Duration : 2 h 20 min
Bit rate : 2 237 kb/s
Width : 1 920 pixels
Height : 1 080 pixels
Display aspect ratio : 16:9
Frame rate mode : Constant
Frame rate : 23.976 (24000/1001) FPS
Color space : YUV
Chroma subsampling : 4:2:0
Bit depth : 8 bits
Scan type : Progressive
Bits/(Pixel*Frame) : 0.045
Stream size : 2.19 GiB (90%)
Language : Japanese
Default : Yes
Forced : No
Color range : Limited
Color primaries : BT.709
Transfer characteristics : BT.709
Matrix coefficients : BT.709

Audio
ID : 2
Format : AAC LC
Format/Info : Advanced Audio Codec Low Complexity
Codec ID : A_AAC-2
Duration : 2 h 20 min
Bit rate : 253 kb/s
Channel(s) : 2 channels
Channel layout : L R
Sampling rate : 48.0 kHz
Frame rate : 46.875 FPS (1024 SPF)
Compression mode : Lossy
Stream size : 254 MiB (10%)
Language : Japanese
Default : Yes
Forced : No


部分资源为软字幕,移动端推荐播放器:MxPlayer,nPlayer,infuse ,其他播放器请自行尝试。

部分资源为软字幕,电脑端推荐播放器:PotPlayer,完美解码,KMPLAYER,其他播放器请自行尝试。



1 个附件 售价 大小 下载 时间

Masked.Hearts.2023.1080p.HuluJP.WEB-DL.AAC.2.0.H.264-DreamHD[1LOU.ME].torrent 0 金币 9.17K 1687 次 1月前

#1楼
发帖时间:2024-02-25 22:07:36   |   回复数:0
游客组